вход на сайт

Имя пользователя :
Пароль :

Восстановление пароля Регистрация
Откровения / Elles (Малгожата Шумовска, Драма, 2011) [BDRip 720p, Профессиональный (многоголосый, закадровый), Оригинал, Sub]
Рейтинг:
(голосов: 1)



[img]{THEME}/images/logopost.png[/img]



Откровения / Elles

Год выпуска: 2011
Страна: Германия, Франция, Польша
Производство: Angoa-Agicoa, Canal+ Polska, Zweites Deutsches Fernsehen (ZDF)
Жанр: Драма

Режиссёр: Малгожата Шумовска
В ролях: Жюльет Бинош, Анаис Демустье, Джоэнна Кулиг, Луи-До де Ланкесэ, Кристина Янда, Анджей Хыра, Али Мархьяр, Жан-Мари Бинош, Франсуа Сивиль

Перевод: Профессиональный (многоголосый, закадровый) [лицензия], Оригинал
Субтитры: Russian, English

Описание: Журналистка Анна, занимающаяся расследованиями для журнала Elle, увлечена новой темой. Она знакомится с группой юных студенток, которые зарабатывают на свое обучение проституцией. Частые встречи уравновешенной дамы и любвеобильных девушек вызывают у Анны чувственный ренессанс и заставляют переосмыслить свои убеждения о деньгах, семье и сексе.
Качество: BDRip 720p [CHD]
Продолжительность: 01:35:19 час.


Формат: MKV
Видео кодек: x264
Аудио кодек: AC3, DTS
Видео: 1280x544 (2.35:1), 25 fps, x264 ~5 044 kbps avg, 0.290 bit/pixel
Аудио#1: 48 kHz, AC3 Dolby Digital, 2/0 (L,R) ch, ~448 kbps (Russian)
Аудио#2: 48 kHz, DTS, 3/2 (L,C,R,l,r) + LFE ch, ~1510.00 kbps avg ( French)


Дата премьеры (мир): 9 сентября 2011
Дата премьеры (РФ): 17 мая 2012, «Кино без границ»


MediaInfo ▼General
Unique ID : 225269310838455218992559388557841670239 (0xA9794A8776EFC8CCB792DD8A4852205F)
Complete name : Otkrovenija.2011.P.BDRip.720p.IRONCLUB.mkv
Format : Matroska
Format version : Version 2
File size : 4.66 GiB
Duration : 1h 35mn
Overall bit rate : 7 000 Kbps
Movie name : IRONCLUB
Encoded date : UTC 2012-07-22 08:32:38
Writing application : mkvmerge v4.9.1 (Ich will) built on Jul 11 2011 23:53:15
Writing library : libebml v1.2.1 + libmatroska v1.1.1

Video
ID : 1
Format : AVC
Format/Info : Advanced Video Codec
Format profile : [email protected]
Format settings, CABAC : Yes
Format settings, ReFrames : 12 frames
Codec ID : V_MPEG4/ISO/AVC
Duration : 1h 35mn
Bit rate : 5 044 Kbps
Width : 1 280 pixels
Height : 544 pixels
Display aspect ratio : 2.35:1
Frame rate : 25.000 fps
Color space : YUV
Chroma subsampling : 4:2:0
Bit depth : 8 bits
Scan type : Progressive
Bits/(Pixel*Frame) : 0.290
Stream size : 3.26 GiB (70%)
Title : Elles.2011.BluRay.720p.DTS.x264-CHD
Writing library : x264 core 120 r2164+656 2ff844c
Encoding settings : cabac=1 / ref=12 / deblock=1:-3:-3 / analyse=0x3:0x113 / me=umh / subme=10 / psy=1 / fade_compensate=0.00 / psy_rd=1.05:0.10 / mixed_ref=1 / me_range=32 / chroma_me=1 / trellis=2 / 8x8dct=1 / cqm=0 / deadzone=21,11 / fast_pskip=0 / chroma_qp_offset=-2 / threads=12 / sliced_threads=0 / nr=0 / decimate=1 / interlaced=0 / bluray_compat=0 / constrained_intra=0 / fgo=0 / bframes=6 / b_pyramid=2 / b_adapt=2 / b_bias=0 / direct=3 / weightb=1 / open_gop=0 / weightp=2 / keyint=250 / keyint_min=25 / scenecut=40 / intra_refresh=0 / rc_lookahead=40 / rc=2pass / mbtree=0 / bitrate=5044 / ratetol=1.0 / qcomp=0.70 / qpmin=0 / qpmax=69 / qpstep=4 / cplxblur=20.0 / qblur=0.5 / vbv_maxrate=20000 / vbv_bufsize=30000 / nal_hrd=none / ip_ratio=1.40 / pb_ratio=1.30 / aq=2:1.00
Language : French
Default : Yes
Forced : Yes
Color primaries : BT.709-5, BT.1361, IEC 61966-2-4, SMPTE RP177
Transfer characteristics : BT.709-5, BT.1361
Matrix coefficients : BT.709-5, BT.1361, IEC 61966-2-4 709, SMPTE RP177

Audio #1
ID : 2
Format : AC-3
Format/Info : Audio Coding 3
Mode extension : CM (complete main)
Format settings, Endianness : Big
Codec ID : A_AC3
Duration : 1h 35mn
Bit rate mode : Constant
Bit rate : 448 Kbps
Channel(s) : 2 channels
Channel positions : Front: L R
Sampling rate : 48.0 KHz
Bit depth : 16 bits
Compression mode : Lossy
Stream size : 305 MiB (6%)
Title : DD 2.0 @ 448 kbps - MVO, R5
Language : Russian
Default : Yes
Forced : Yes

Audio #2
ID : 3
Format : DTS
Format/Info : Digital Theater Systems
Codec ID : A_DTS
Duration : 1h 35
bf3a4f948012100a144139a97883d2e4b2ab5bdeОткровения / Elles (Малгожата Шумовска, Драма, 2011) [BDRip 720p, Профессиональный (многоголосый, закадровый), Оригинал, Sub] Откровения / Elles (Малгожата Шумовска, Драма, 2011) [BDRip 720p, Профессиональный (многоголосый, закадровый), Оригинал, Sub] " />

Аплоадер: Админ, дата: 22-07-2012, 20:12, торрент скачан: 359 раз

Понравилась раздача? Посмотрите эти:
  • Верное дельце / Une pure affaire (Александр Коффре, Боевик, Комедия, Кримин ...
  • Гость / The Caller (Мэттью Паркхилл, триллер, детектив, 2011) [BDRip 720p, ...
  • Жизнь Пи / Life Of Pi (Энг Ли, Драма, приключения, 2012) [BDRip 720p, Профе ...
  • Суррогат / The Sessions (Бен Луин, драма, 2012) [BDRip 720p, Профессиональн ...
  • Джекпот / Arme Riddere (Магнус Мартенс, Боевик, комедия, криминал, 2011) [B ...
  • Мартовские иды / The Ides of March (Джордж Клуни / George Clooney, драма, 2 ...
  • Откровения / Elles (Малгожата Шумовска, Драма, 2011) [HDRip - AVC, Професси ...
  • Откровения / Elles (Малгожата Шумовска, Драма, 2011) [HDRip - AVC, Професси ...
  • Откровения / Elles (Малгожата Шумовска, Драма, 2011) [BDRip - AVC, Професси ...
  • Игры страсти / Passion Play (Митч Глейзер, триллер, драма, 2010) [BDRip 720 ...
  • Соломенные псы / Straw Dogs (Род Лури, Драма, Триллер, Криминал, 2011) [BDR ...
  • Учитель на замену / Detachment (Тони Кэй, драма, 2011) [BDRip 720р, Професс ...
  • Белый тигр (Карен Шахназаров, военный, 2012) [BDRip 720p, Не требуется]
  • Джок / Jock (Дункан МакНили, мультфильм, комедия, приключения, семейный, 20 ...
  • Любовь живет три года / Lamour dure trois ans (Фредерик Бегбедер / Frederic ...
  • Любовь / Love (Уильям Юбэнк, Фантастика, драма, 2011) [BDRip 720p, Професси ...
  • Боже, благослови Америку / God Bless America (Боб Голдтуэйт, Драма, комедия ...
  • Семь футов / Seven Below (Кевин Каррауэй, Ужасы, триллер, 2012) [BDRip 720p ...
  • Любовь С Препятствиями / Un Bonheur Narrive Jamais Seul (Джеймс Хат, Мелодр ...
  • Судный день / The Day (Дуглас Арниокоски, Фантастика, триллер, драма, 2011) ...
  • Доля ангелов / The Angels Share (Кен Лоуч, Драма, комедия, 2012) [BDRip 720 ...
  • Дневник слабака 3 / Diary of a Wimpy Kid: Dog Days (Дэвид Бауэрс, комедия, ...
  • Возлюбленные / Les bien-aimés (Кристоф Оноре, Драма, 2011) [BDRip 720p, Дуб ...
  • Бункер / La cara oculta (Андрес Баиз, триллер, 2011) [BDRip 720p, Профессио ...
  • Откровения / Elles (Малгожата Шумовска, драма, 2011) [HDRip, Профессиональн ...
  • Информация
    Посетители, находящиеся в группе Гости, не могут оставлять комментарии к данной публикации.