вход на сайт

Имя пользователя :
Пароль :

Восстановление пароля Регистрация
Напролом / Lockout [UNRATED] (Джеймс Мэтер, Стивен Ст. Леджер, Фантастика, боевик, триллер, 2012) [ BDRip 720p, Дубляж, Оригинал, Sub]
Рейтинг:
(голосов: 1)



[img]{THEME}/images/logopost.png[/img]



Напролом / Lockout [UNRATED]

Год выпуска: 2012
Страна: Франция
Производство: Canal+
Жанр: Фантастика, боевик, триллер

Режиссёр: Джеймс Мэтер, Стивен Ст. Леджер
В ролях: Гай Пирс, Мэгги Грэйс, Винсент Риган, Джозеф Гилган, Ленни Джеймс, Петер Стормаре, Джеки Идо, Тим Плестер, Марк Танкерсли, Энн-Соленн Хатте

Перевод: Дубляж, Оригинал
Субтитры: Russian [Voronine], English

Описание: Орбитальная станция MS1 — крупнейшая космическая тюрьма, где в анабиозе содержатся тысячи опасных преступников. Ходят слухи, что над погруженными в искусственный сон узниками проводятся противозаконные эксперименты. С расследованием на станцию отправлена комиссия во главе с Эмили Уорнок, дочерью президента США.

Неожиданно ситуация выходит из-под контроля, и вся станция оказывается захвачена уголовниками. Спецагент Сноу, несправедливо обвиненный в государственной измене, получает задание проникнуть в самую неприступную тюрьму во Вселенной и спасти Эмили. Это его единственный шанс вернуть себе доброе имя и получить свободу.Качество: BDRip 720p [ThD]
Продолжительность: 01:35:19 час.

Формат: MKV
Видео кодек: x264
Аудио кодек:DTS
Видео: 1280x536 (2:40:1), 23.976 fps, x264 ~4 294 kbps avg, 0.261 bit/pixel
Аудио#1: 48 kHz, DTS, 3/2 (L,C,R,l,r) + LFE ch, ~755 kbps avg (RUS)
Аудио#2: 48 kHz, DTS, 3/2 (L,C,R,l,r) + LFE ch, ~1510.00 kbps avg (ENG)


Дата премьеры (мир): 7 апреля 2012
Дата премьеры (РФ): 17 мая 2012, «Вольга»

MediaInfo ▼General
Unique ID : 200065143093564611390537986085793499401 (0x9683251E24B3E8CFB5FEBDFCB80B0909)
Complete name : Napralom.2012.D.BDRip.720p.IRONCLUB.mkv
Format : Matroska
Format version : Version 2
File size : 4.46 GiB
Duration : 1h 35mn
Overall bit rate : 6 691 Kbps
Movie name : IRONCLUB
Encoded date : UTC 2012-07-13 07:34:33
Writing application : mkvmerge v4.9.1 (Ich will) built on Jul 11 2011 23:53:15
Writing library : libebml v1.2.1 + libmatroska v1.1.1

Video
ID : 1
Format : AVC
Format/Info : Advanced Video Codec
Format profile : [email protected]
Format settings, CABAC : Yes
Format settings, ReFrames : 12 frames
Codec ID : V_MPEG4/ISO/AVC
Duration : 1h 35mn
Bit rate : 4 294 Kbps
Width : 1 280 pixels
Height : 536 pixels
Display aspect ratio : 2.40:1
Frame rate : 23.976 fps
Color space : YUV
Chroma subsampling : 4:2:0
Bit depth : 8 bits
Scan type : Progressive
Bits/(Pixel*Frame) : 0.261
Stream size : 2.86 GiB (64%)
Title : Lockout.2012.UNRATED.720p.BluRay.DD5.1.x264-ThD
Writing library : x264 core 125 r2200 999b753
Encoding settings : cabac=1 / ref=12 / deblock=1:-3:-3 / analyse=0x3:0x133 / me=umh / subme=11 / psy=1 / psy_rd=1.10:0.00 / mixed_ref=1 / me_range=96 / chroma_me=1 / trellis=2 / 8x8dct=1 / cqm=0 / deadzone=21,11 / fast_pskip=0 / chroma_qp_offset=-2 / threads=18 / lookahead_threads=3 / sliced_threads=0 / nr=0 / decimate=0 / interlaced=0 / bluray_compat=0 / constrained_intra=0 / bframes=11 / b_pyramid=2 / b_adapt=2 / b_bias=0 / direct=3 / weightb=1 / open_gop=0 / weightp=2 / keyint=250 / keyint_min=23 / scenecut=40 / intra_refresh=0 / rc=crf / mbtree=0 / crf=16.5 / qcomp=0.80 / qpmin=0 / qpmax=69 / qpstep=4 / ip_ratio=1.40 / pb_ratio=1.20 / aq=2:0.55
Language : English
Default : Yes
Forced : Yes

Audio #1
ID : 2
Format : DTS
Format/Info : Digital Theater Systems
Codec ID : A_DTS
Duration : 1h 35mn
Bit rate mode : Constant
Bit rate : 755 Kbps
Channel(s) : 6 channels
Channel positions : Front: L C R, Side: L R, LFE
Sampling rate : 48.0 KHz
Bit depth : 24 bits
Compression mode : Lossy
Stream size : 514 MiB (11%)
Title : DTS 5.1 @ 768 kbps - Dub, R5
Language : Russian
Default : Yes
Forced : Yes

Audio #2
ID : 3
Format : DTS
Format/Info : Digital Theater Systems
Codec ID : A_DTS
Duration : 1h 35mn
Bit rate mode : Constant
Bit rate : 1 510 Kbps
Channel(s) : 6 channels
Channel positions : Front: L C R, Side: L R, LFE
Sampling rate : 48.0 KHz
Bit depth : 24 bits
Compression mode : Lossy
Stream size : 1.01 GiB (
46633917c52188dd84692f89a04f04880e229a82Напролом / Lockout [UNRATED] (Джеймс Мэтер, Стивен Ст. Леджер, Фантастика, боевик, триллер, 2012) [ BDRip 720p, Дубляж, Оригинал, Sub] Напролом / Lockout [UNRATED] (Джеймс Мэтер, Стивен Ст. Леджер, Фантастика, боевик, триллер, 2012) [ BDRip 720p, Дубляж, Оригинал, Sub] " />

Аплоадер: Админ, дата: 13-07-2012, 13:58, торрент скачан: 359 раз

Понравилась раздача? Посмотрите эти:
  • Толстяк на ринге / Here Comes the Boom (Фрэнк Корачи, Боевик, комедия, 201 ...
  • Хорошо быть тихоней / The Perks of Being a Wallflower (Стивен Чбоски, Драма ...
  • Напролом / Lockout [UNRATED] (Джеймс Мэтер, Стивен Ст. Леджер, Фантастика, ...
  • Напролом / Lockout [UNRATED] (Джеймс Мэтер, Стивен Ст. Леджер, Фантастика, ...
  • Напролом / Lockout [UNRATED] (Джеймс Мэтер, Стивен Ст. Леджер, Фантастика, ...
  • Закон доблести / Act of Valor (Майк МакКой, Скотт Во, боевик, триллер, прик ...
  • Напролом / Lockout (Джеймс Мэтер, Стивен Ст. Леджер, Фантастика, 2012) [BDR ...
  • «Весёлые» каникулы / Get the Gringo (Адриан Грюнберг, Боевик, комедия, 2012 ...
  • Напролом / Lockout (Джеймс Мэтер, Стивен Ст. Леджер, Фантастика, 2012) [BDR ...
  • Напролом / Lockout [UNRATED] (Джеймс Мэтер, Стивен Ст. Леджер, Фантастика, ...
  • Напролом / Lockout [Unrated] (Джеймс Мэтер, Стивен Ст. Леджер, фантастика, ...
  • Напролом [Расширенная версия] / Lockout [Unrated Edition] (Джеймс Мэтер, Ст ...
  • Рейд / Serbuan maut (Гарет Эванс, Боевик, триллер, криминал, 2011) [BDRip 7 ...
  • Ворон / The Raven (Джеймс МакТиг, Триллер, детектив, 2012) [BDRip 720p, Дуб ...
  • Медальон / Stolen (Саймон Уэст, Боевик, триллер, 2012) [BDRip 720p, Дубляж, ...
  • Супер Майк / Magic Mike (Стивен Содерберг, Драма, комедия, 2012) [BDRip 720 ...
  • Напролом / Lockout [UNRATED] (Джеймс Мэтер, Стивен Ст. Леджер, Фантастика, ...
  • Напролом / Lockout [UNRATED] (Джеймс Мэтер, Стивен Ст. Леджер, Фантастика, ...
  • Напролом / Lockout [Unrated] (Джеймс Мэтер, Стивен Ст. Леджер, фантастика, ...
  • Напролом / Lockout [UNRATED] (Джеймс Мэтер, Стивен Ст. Леджер, Фантастика, ...
  • Напролом / Lockout [UNRATED] (Джеймс Мэтер, Стивен Ст. Леджер, Фантастика, ...
  • Напролом / Lockout (Джеймс Мэтер, Стивен Ст. Леджер, фантастика, боевик, тр ...
  • Напролом / Lockout (Джеймс Мэтер, Стивен Ст. Леджер, Фантастика, Боевик, Тр ...
  • Напролом / Lockout (Джеймс Мэтер, Стивен Ст. Леджер, Фантастика, Боевик, Тр ...
  • Напролом / Lockout (Джеймс Мэтер, Стивен Ст. Леджер, фантастика, боевик, тр ...
  • Информация
    Посетители, находящиеся в группе Гости, не могут оставлять комментарии к данной публикации.