вход на сайт

Имя пользователя :
Пароль :

Восстановление пароля Регистрация
В доме отца / Casa de mi Padre (Мэтт Пидмонт, комедия, 2012) [BDRip 720p, Дубляж, Оригинал, Sub]
Рейтинг:
(голосов: 1)



[img]{THEME}/images/logopost.png[/img]



В доме отца / Casa de mi Padre

Год выпуска: 2012
Страна:США
Производство: NALA Films, Gary Sanchez Productions
Жанр: Комедия

Режиссёр: Мэтт Пидмонт
В ролях: Уилл Феррелл, Гаэль Гарсия Берналь, Диего Луна, Педро Армендарис мл., Генезис Родригез, Эфрен Рамирез, Адриан Мартинез, Мэнюель Уррего, Ник Офферман, Джерри Коллинз

Перевод: Дубляж, Оригинал
Субтитры: Russian, English

Описание: Армандо Альварес обычный парень, не особо видавший жизнь. Да и как насладиться ею, когда он вынужден проводить все своё время на ранчо своего отца. Да все осложняется еще и тем, что он английского не знает. И это просто катастрофа для человека, который не может покинуть родную Мексику, чтоб на некоторое время вдохнуть свежий воздух свободы. А тут еще их семейный бизнес не заладился на ранчо, возникли финансовые трудности, отцу срочно требуется немалая сумма денег. И в этот момент, словно спаситель, приезжает его брат Армандо Рауль со своей новой невестой. А у него все хорошо, он очень успешный, умеет вести свой бизнес, да и долг отца обещает погасить. Но…



Качество: BDRip 720p [HDChina]
Продолжительность: 01:24:27 час.


Формат: MKV
Видео кодек: x264
Аудио кодек: AC3, DTS
Видео: 1280x546 (2:35:1), 23.976 fps, x264 ~4 990 kbps avg, 0.298 bit/pixel
Аудио#1: 48 kHz, AC3 Dolby Digital, 3/2 (L,C,R,l,r) + LFE ch, ~384 kbps (RUS)
Аудио#2: 48 kHz, DTS, 3/2 (L,C,R,l,r) + LFE ch, ~1510.00 kbps avg (ENG)

Дата премьеры (мир): 13 марта 2012
Дата премьеры (РФ): 17 мая 2012, «Парадиз»

MediaInfo ▼General
Unique ID : 215099147041645689501520186557732817549 (0xA1D296BD8F86408898A697565EED0A8D)
Complete name : V.dome.otca.2012.D.BDRip.720p.IRONCLUB.mkv
Format : Matroska
Format version : Version 2
File size : 4.06 GiB
Duration : 1h 24mn
Overall bit rate : 6 885 Kbps
Movie name : IRONCLUB
Encoded date : UTC 2012-07-11 09:30:35
Writing application : mkvmerge v4.9.1 (Ich will) built on Jul 11 2011 23:53:15
Writing library : libebml v1.2.1 + libmatroska v1.1.1

Video
ID : 1
Format : AVC
Format/Info : Advanced Video Codec
Format profile : [email protected]
Format settings, CABAC : Yes
Format settings, ReFrames : 11 frames
Codec ID : V_MPEG4/ISO/AVC
Duration : 1h 24mn
Bit rate : 4 990 Kbps
Width : 1 280 pixels
Height : 546 pixels
Display aspect ratio : 2.35:1
Frame rate : 23.976 fps
Color space : YUV
Chroma subsampling : 4:2:0
Bit depth : 8 bits
Scan type : Progressive
Bits/(Pixel*Frame) : 0.298
Stream size : 2.86 GiB (71%)
Title : Casa.de.mi.Padre.2012.720p.BluRay.x264.DTS-HDChina
Writing library : x264 core 125 r2200 999b753
Encoding settings : cabac=1 / ref=11 / deblock=1:-3:-3 / analyse=0x3:0x133 / me=umh / subme=10 / psy=1 / psy_rd=1.00:0.00 / mixed_ref=1 / me_range=32 / chroma_me=1 / trellis=2 / 8x8dct=1 / cqm=0 / deadzone=21,11 / fast_pskip=1 / chroma_qp_offset=-2 / threads=12 / lookahead_threads=2 / sliced_threads=0 / nr=0 / decimate=0 / interlaced=0 / bluray_compat=0 / constrained_intra=0 / bframes=7 / b_pyramid=2 / b_adapt=2 / b_bias=0 / direct=3 / weightb=1 / open_gop=0 / weightp=2 / keyint=250 / keyint_min=23 / scenecut=40 / intra_refresh=0 / rc_lookahead=200 / rc=2pass / mbtree=1 / bitrate=4990 / ratetol=1.0 / qcomp=0.60 / qpmin=0 / qpmax=69 / qpstep=4 / cplxblur=20.0 / qblur=0.5 / vbv_maxrate=30000 / vbv_bufsize=30000 / nal_hrd=none / ip_ratio=1.50 / aq=1:1.00
Language : English
Default : Yes
Forced : Yes

Audio #1
ID : 2
Format : AC-3
Format/Info : Audio Coding 3
Mode extension : CM (complete main)
Format settings, Endianness : Big
Codec ID : A_AC3
Duration : 1h 24mn
Bit rate mode : Constant
Bit rate : 384 Kbps
Channel(s) : 6 channels
Channel positions : Front: L C R, Side: L R, LFE
Sampling rate : 48.0 KHz
Bit depth : 16 bits
Compression mode : Lossy
Stream size : 232 MiB (6%)
Title : DD 5.1 @ 384 kbps - Dub, R5
Language : Russian
Default : Yes
Forced : Yes

Audio #2
ID : 3
Format : DTS
Format/Info : Dig
3608e050c95ea4ddec2fbb81d326c09778dd9b3bВ доме отца / Casa de mi Padre (Мэтт Пидмонт, комедия, 2012) [BDRip 720p, Дубляж, Оригинал, Sub] В доме отца / Casa de mi Padre (Мэтт Пидмонт, комедия, 2012) [BDRip 720p, Дубляж, Оригинал, Sub] " />

Аплоадер: Админ, дата: 11-07-2012, 16:26, торрент скачан: 359 раз

Понравилась раздача? Посмотрите эти:
  • Толстяк на ринге / Here Comes the Boom (Фрэнк Корачи, Боевик, комедия, 201 ...
  • Марко Макако / Marco Macaco (Жан Рабек, Мультфильм, комедия, семейный, 2012 ...
  • В доме отца / Casa de mi Padre (Мэтт Пидмонт, комедия, 2012) [HDRip, Дублир ...
  • В доме отца / Casa de mi Padre (Мэтт Пидмонт, комедия, 2012) [BDRip-AVC, Ду ...
  • «Старый» Новый год / New Years Eve (Гэрри Маршалл, мелодрама, комедия, 2011 ...
  • Проект X: Дорвались / Project X (Нима Нуризаде, комедия, 2012) [BDRip 720p, ...
  • Джок / Jock (Дункан МакНили, мультфильм, комедия, приключения, семейный, 20 ...
  • «Весёлые» каникулы / Get the Gringo (Адриан Грюнберг, Боевик, комедия, 2012 ...
  • Ворон / The Raven (Джеймс МакТиг, Триллер, детектив, 2012) [BDRip 720p, Дуб ...
  • Пираньи 3DD / Piranha 3DD (Джон Гулажер, ужасы, триллер, комедия, 2012) [BD ...
  • Жажда странствий / Wanderlust (Дэвид Уэйн, Мелодрама, комедия, 2012) [BDRip ...
  • Семь футов / Seven Below (Кевин Каррауэй, Ужасы, триллер, 2012) [BDRip 720p ...
  • Красные огни / Red Lights (Родриго Кортес, Ужасы, триллер, драма, 2012) [BD ...
  • Медальон / Stolen (Саймон Уэст, Боевик, триллер, 2012) [BDRip 720p, Дубляж, ...
  • Рок на века / Rock of Ages (Адам Шенкман, Мюзикл, драма, мелодрама, комедия ...
  • Супер Майк / Magic Mike (Стивен Содерберг, Драма, комедия, 2012) [BDRip 720 ...
  • Любовь С Препятствиями / Un Bonheur Narrive Jamais Seul (Джеймс Хат, Мелодр ...
  • Цунами 3D / Bait (Кимбл Рендалл, Ужасы, боевик, триллер, 2011) [BDRip 720p ...
  • Дружинники / The Watch (Акива Шаффер, Фантастика, комедия, 2012) [BDRip 720 ...
  • Третий лишний / Ted (Сет МакФарлейн, Фэнтези, комедия, 2012) [BDRip 720p, Д ...
  • На Дороге / On The Road (Уолтер Саллес, Драма, приключения, 2012) [BDRip 72 ...
  • Патруль / End of Watch (Дэвид Эйр, Триллер, драма, криминал, 2012) [BDRip 7 ...
  • Явление / The Apparition (Тодд Линкольн, Ужасы, триллер, 2012) [BDRip 720p, ...
  • Странная жизнь Тимоти Грина / The Odd Life of Timothy Green (Питер Хеджес, ...
  • В доме отца / Casa de mi Padre (Мэтт Пидмонт, комедия, 2012) [HDRip, Дубляж ...
  • Информация
    Посетители, находящиеся в группе Гости, не могут оставлять комментарии к данной публикации.