вход на сайт

Имя пользователя :
Пароль :

Восстановление пароля Регистрация
Двигай время! / Los ilusionautas (Эдуардо Шульдт, Мультфильм, фэнтези, приключения, семейный, 2012) [BDRip 1080p, Дубляж]
Рейтинг:
(голосов: 1)



[img]{THEME}/images/logopost.png[/img]



Двигай время! / Los ilusionautas

Год выпуска: 2012
Страна: Франция, Перу
Производство: Aronnax Animation Studios
Жанр: Мультфильм, фэнтези, приключения, семейный

Режиссёр: Эдуардо Шульдт
В ролях: Nathan Aswell, Чера Бэйли, Кэтлин Барр, Лиллиэн Карлсон, Гари Чок, Йен Джеймс Корлетт, Майкл Донован, Kent Gallie, Фил Хэйес, Роджер Келли

Перевод: Дубляж
Субтитры: Отсутствуют

Описание: Невероятные события потрясают Францию. Все герои знаменитых романов Жюля Верна ожили и, сами того не ведая, несут хаос и разрушения. А всё потому, что новый президент Франции и министр культуры задумали внести в романы великого писателя правки и перепутали там всё. Спасти ситуацию может лишь команда из 4-х одарённых детей, которые отправлены в прошлое, чтобы вернуть все истории в прежнее русло и поместить героев Жюля Верна обратно на страницы книг.



Качество: BDRip 1080p
Продолжительность: 01:21:32 час.



Формат: MKV
Видео кодек: x264
Аудио кодек: AC3
Видео: 1920x1080 (16:9), 23.976 fps, x264 ~11,2 Mbps,0.225 bit/pixel
Аудио:48 kHz, AC3 Dolby Digital, 3/2 (L,C,R,l,r) + LFE ch, ~640 kbps


MediaInfo ▼Полное имя : Dvigaj.vremya.2012.x264.BDRip.1080p.mkv
Формат : Matroska
Версия формата : Version 2
Размер файла : 6,72 Гбайт
Продолжительность : 1 ч. 21 м.
Общий поток : 11,8 Мбит/сек
Название фильма : Dvigaj.vremya.2012.x264.BDRip.1080p.mkv
Дата кодирования : UTC 2012-07-09 20:19:06
Программа кодирования : mkvmerge v5.5.0 (Healer) built on Apr 6 2012 21:43:24
Библиотека кодирования : libebml v1.2.3 + libmatroska v1.3.0

Видео
Идентификатор : 1
Формат : AVC
Формат/Информация : Advanced Video Codec
Профиль формата : [email protected]
Параметр CABAC формата : Да
Параметр ReFrames формата : 4 кадра
Идентификатор кодека : V_MPEG4/ISO/AVC
Продолжительность : 1 ч. 21 м.
Битрейт : 11,2 Мбит/сек
Ширина : 1920 пикселей
Высота : 1080 пикселей
Соотношение сторон : 16:9
Частота кадров : 23,976 кадра/сек
Цветовое пространство : YUV
Субдискретизация насыщенности : 4:2:0
Битовая глубина : 8 бит
Тип развёртки : Прогрессивная
Бит/(Пиксели*Кадры) : 0.225
Размер потока : 6,22 Гбайт (93%)
Заголовок : Dvigaj.vremya.2012.x264.BDRip.1080p.mkv
Библиотека кодирования : x264 core 124 r2197 69a0443
Настройки программы : cabac=1 / ref=4 / deblock=1:-1:-1 / analyse=0x3:0x113 / me=umh / subme=11 / psy=1 / psy_rd=0.50:0.00 / mixed_ref=1 / me_range=32 / chroma_me=1 / trellis=2 / 8x8dct=1 / cqm=0 / deadzone=21,11 / fast_pskip=0 / chroma_qp_offset=-2 / threads=6 / sliced_threads=0 / nr=0 / decimate=1 / interlaced=0 / bluray_compat=0 / constrained_intra=0 / bframes=6 / b_pyramid=2 / b_adapt=2 / b_bias=0 / direct=3 / weightb=1 / open_gop=0 / weightp=2 / keyint=250 / keyint_min=23 / scenecut=40 / intra_refresh=0 / rc_lookahead=40 / rc=2pass / mbtree=0 / bitrate=11162 / ratetol=1.0 / qcomp=0.60 / qpmin=10 / qpmax=69 / qpstep=4 / cplxblur=20.0 / qblur=0.5 / vbv_maxrate=50000 / vbv_bufsize=50000 / nal_hrd=none / ip_ratio=1.40 / pb_ratio=1.30 / aq=1:0.60
Язык : French
Default : Да
Forced : Нет
Основные цвета : BT.709-5, BT.1361, IEC 61966-2-4, SMPTE RP177
Характеристики трансфера : BT.709-5, BT.1361
Коэффициенты матрицы : BT.709-5, BT.1361, IEC 61966-2-4 709, SMPTE RP177

Аудио
Идентификатор : 2
Формат : AC-3
Формат/Информация : Audio Coding 3
Расширение режима : CM (complete main)
Параметр Endianness формата : Big
Идентификатор кодека : A_AC3
Продолжительность : 1 ч. 21 м.
Вид битрейта : Постоянный
Битрейт : 640 Кбит/сек
Каналы : 6 каналов
Расположение каналов : Front: L C R, Side: L R, LFE
Частота : 48,0 КГц
Битовая глубина : 16 бит
Метод сжатия : С потерями
Размер потока : 373 Мбайт (5%)
Язык : Russian
Default : Да
Forced : Нет

Меню
00:00:00.000 : fr:00:00:00.000
00:08:59.831 : fr:00:08:59.831
00:15:53.286 : fr:00:15:53.286
00:23:55.643 : fr:00:23:55.643
00:32:15.559 : fr:00:32:15.559
00:39:46.843 : fr:00:39:
2833384e7ea0bc58aa208add589c71bc8f0c0754Двигай время! / Los ilusionautas (Эдуардо Шульдт, Мультфильм, фэнтези, приключения, семейный, 2012) [BDRip 1080p, Дубляж] Двигай время! / Los ilusionautas (Эдуардо Шульдт, Мультфильм, фэнтези, приключения, семейный, 2012) [BDRip 1080p, Дубляж] " />

Аплоадер: Админ, дата: 10-07-2012, 17:20, торрент скачан: 359 раз

Понравилась раздача? Посмотрите эти:
  • Смурфики 2 / The Smurfs 2 (Раджа Госнелл, мультфильм, фэнтези, комедия, сем ...
  • Византия / Byzantium (Нил Джордан, Фэнтези, триллер, драма, 2012) [BDRip 10 ...
  • Дом в конце улицы / House at the End of the Street (Марк Тондерай, Ужасы, т ...
  • Ворон / The Raven (Джеймс МакТиг, Триллер, детектив, 2012) [BDRip 1080p, Ду ...
  • [3D] Мадагаскар 3 / Madagascar 3: Europes Most Wanted (Эрик Дарнелл, Том Ма ...
  • Снежная королева (Максим Свешников, Владлен Барбэ, Мультфильм, фэнтези, при ...
  • День учителя (Сергей Мокрицкий, драма, 2012) [DVDRip-AVC, Не требуется]
  • Приключения Тинтина: Тайна Единорога / The Adventures of Tintin (Стивен Спи ...
  • Двигай время! / Los ilusionautas (Эдуардо Шульдт, Мультфильм, фэнтези, прик ...
  • Двигай время! / Los ilusionautas (Эдуардо Шульдт, Мультфильм, 2012) [BDRip- ...
  • [3D] Мадагаскар 3 / Madagascar 3: Europes Most Wanted (Эрик Дарнелл, Том Ма ...
  • [3D] Секретная служба Санта-Клауса / Arthur Christmas (Сара Смит, Бэрри Кук ...
  • Схватка / The Grey (Джо Карнахан, боевик, триллер, драма, приключения, 2012 ...
  • Стыд / Shame (Стив МакКуин, драма, 2011) [BDRip 1080p, полное дублирование, ...
  • Охотник / The Hunter (Дэниэл Неттхейм, драма, приключения, 2011) [BDRip 108 ...
  • Счастливчик / The Lucky One (Скотт Хикс, Драма, мелодрама, 2012) [BDRip 108 ...
  • Секретная служба Санта-Клауса / Arthur Christmas (Сара Смит, Бэрри Кук, Мул ...
  • Монстры на каникулах / Hotel Transylvania (Генндий Тартаковский, Мультфильм ...
  • Тэд Джонс и Затерянный город 3D / Las aventuras de Tadeo Jones (Энрике Гато ...
  • Нико 2 / Niko 2: Lentajaveljekset (Кари Юуусонен, Юрген Лердам, Мультфильм, ...
  • Двигай время! / Los ilusionautas (Эдуардо Шульдт / Eduardo Schuldt) [2012 г ...
  • Двигай время! / Los ilusionautas (Эдуардо Шульдт, Мультфильм, фэнтези, прик ...
  • Двигай время! / Los ilusionautas (Эдуардо Шульдт, Мультфильм, фэнтези, прик ...
  • Двигай время! / Los ilusionautas (Эдуардо Шульдт, Мультфильм, Фэнтези, Прик ...
  • [3D] Двигай время! 3D / Los ilusionautas 3D (Эдуардо Шульдт, Мультфильм, 20 ...
  • Информация
    Посетители, находящиеся в группе Гости, не могут оставлять комментарии к данной публикации.