вход на сайт

Имя пользователя :
Пароль :

Восстановление пароля Регистрация
Любовь живет три года / Lamour dure trois ans (Фредерик Бегбедер / Frederic Beigbeder, комедия, 2011) [BDRip 720p, Дубляж, Профессиональный (многоголосый закадровый), Оригинал, Commentary, Sub]
Рейтинг:
(голосов: 1)



[img]{THEME}/images/logopost.png[/img]



Любовь живет три года/Lamour dure trois ans

Год выпуска: 2011
Страна:Франция, Бельгия
Производство: AKN Productions / Canal+ [fr]
Жанр: комедия

Режиссёр: Фредерик Бегбедер
В ролях: Гаспар Пруст, Луиз Бургуэн, Джои Старр, Джонатан Ламберт, Фредерик Бель, Николас Бедос, Элиза Седнауи, Бернар Менез, Анни Дюпре, Тома Жуанне

Перевод: Дубляж, Профессиональный (многоголосый закадровый), Оригинал + Commentary
Субтитры: Russian

Описание: Главный герой — журналист Марк Марронье, пишущий светскую хронику. Он уверен, что любовь живёт три года: сначала люди страстно любят друг друга, потом нежно и по-дружески, а потом им становится скучно. Причины таких взглядов кроются в том, что сам Марк никогда не любил больше трёх лет…Качество:BDRip 720p
Продолжительность: 01:37:50 час.


Формат: MKV
Видео кодек: x264
Аудио кодек: AC3, DTS
Видео: 1280x544 (2.35:1), 24 fps, x264 ~5086 kbps avg,0.304 bit/pixel
Аудио#1: 48 kHz, AC3 Dolby Digital, 3/2 (L,C,R,l,r) + LFE ch, ~384 kbps (RUS)
Аудио#2: 48 kHz, AC3 Dolby Digital, 3/2 (L,C,R,l,r) + LFE ch, ~384 kbps(MVO)
Аудио#3: 48 kHz, DTS, 3/2 (L,C,R,l,r) + LFE ch, ~1510.00 kbps avg (FRA)
Аудио#4: 48 kHz, AC3 Dolby Digital, 2/0 (L,R) ch, ~192 kbps (FRA [Commentary )

Дата премьеры (мир): 10 декабря 2011
Дата премьеры (РФ): 10 мая 2012, «Cinema Prestige»


MediaInfo ▼General
Unique ID : 201681777727709654642400974161957322287 (0x97BA7F5BEAF67232B2CF9224BA1B7E2F)
Complete name : Ljubov.zhivet.tri.goda.2011.D.BDRip.720p.IRONCLUB.mkv
Format : Matroska
Format version : Version 2
File size : 5.15 GiB
Duration : 1h 37mn
Overall bit rate : 7 536 Kbps
Movie name : IRONCLUB
Encoded date : UTC 2012-07-07 06:21:42
Writing application : mkvmerge v4.9.1 (Ich will) built on Jul 11 2011 23:53:15
Writing library : libebml v1.2.1 + libmatroska v1.1.1

Video
ID : 1
Format : AVC
Format/Info : Advanced Video Codec
Format profile : [email protected]
Format settings, CABAC : Yes
Format settings, ReFrames : 12 frames
Codec ID : V_MPEG4/ISO/AVC
Duration : 1h 37mn
Bit rate : 5 086 Kbps
Width : 1 280 pixels
Height : 544 pixels
Display aspect ratio : 2.35:1
Frame rate : 24.000 fps
Color space : YUV
Chroma subsampling : 4:2:0
Bit depth : 8 bits
Scan type : Progressive
Bits/(Pixel*Frame) : 0.304
Stream size : 3.36 GiB (65%)
Title : Lamour dure trois ans (2011)
Writing library : x264 core 125 r2200 999b753
Encoding settings : cabac=1 / ref=12 / deblock=1:-3:-3 / analyse=0x3:0x113 / me=umh / subme=11 / psy=1 / psy_rd=1.00:0.00 / mixed_ref=1 / me_range=32 / chroma_me=1 / trellis=2 / 8x8dct=1 / cqm=0 / deadzone=21,11 / fast_pskip=0 / chroma_qp_offset=-2 / threads=12 / lookahead_threads=2 / sliced_threads=0 / nr=0 / decimate=1 / interlaced=0 / bluray_compat=0 / constrained_intra=0 / bframes=9 / b_pyramid=2 / b_adapt=2 / b_bias=0 / direct=3 / weightb=1 / open_gop=0 / weightp=2 / keyint=250 / keyint_min=24 / scenecut=40 / intra_refresh=0 / rc_lookahead=40 / rc=2pass / mbtree=0 / bitrate=5086 / ratetol=1.0 / qcomp=0.60 / qpmin=10 / qpmax=69 / qpstep=4 / cplxblur=20.0 / qblur=0.5 / vbv_maxrate=50000 / vbv_bufsize=62500 / nal_hrd=none / ip_ratio=1.40 / pb_ratio=1.30 / aq=1:1.00
Language : French
Default : Yes
Forced : Yes
Matrix coefficients : BT.709-5, BT.1361, IEC 61966-2-4 709, SMPTE RP177

Audio #1
ID : 2
Format : AC-3
Format/Info : Audio Coding 3
Mode extension : CM (complete main)
Format settings, Endianness : Big
Codec ID : A_AC3
Duration : 1h 37mn
Bit rate mode : Constant
Bit rate : 384 Kbps
Channel(s) : 6 channels
Channel positions : Front: L C R, Side: L R, LFE
Sampling rate : 48.0 KHz
Bit depth : 16 bits
Compression mode : Lossy
Stream size : 269 MiB (5%)
Title : DD 5.1 @ 384 kbps - Dub, R5
Language : Russian
Default : Yes
Forced : Yes

Audio #2
ID : 3
Format : AC-3
Format/Info : Audio
9fcd3944cfd7699d9e22076e1fea6a91827ba36bЛюбовь живет три года / Lamour dure trois ans (Фредерик Бегбедер / Frederic Beigbeder, комедия, 2011) [BDRip 720p, Дубляж, Профессиональный (многоголосый закадровый), Оригинал, Commentary, Sub] Любовь живет три года / Lamour dure trois ans (Фредерик Бегбедер / Frederic Beigbeder, комедия, 2011) [BDRip 720p, Дубляж, Профессиональный (многоголосый закадровый), Оригинал, Commentary, Sub] " />

Аплоадер: Админ, дата: 7-07-2012, 13:05, торрент скачан: 359 раз

Понравилась раздача? Посмотрите эти:
  • Джекпот / Arme Riddere (Магнус Мартенс, Боевик, комедия, криминал, 2011) [B ...
  • Больше, чем любовь / A Lot Like Love (Найджел Коул, драма, мелодрама, комед ...
  • Любовь живет три года / Lamour dure trois ans (Фредерик Бегбедер / Frederic ...
  • Любовь живет три года / Lamour dure trois ans (Фредерик Бегбедер / Frederic ...
  • Любовь живет три года / Lamour dure trois ans (Фредерик Бегбедер / Frederic ...
  • Любовь живет три года / Lamour dure trois ans (Фредерик Бегбедер, Комедия, ...
  • Любовь живет три года / Lamour dure trois ans (Фредерик Бегбедер, Комедия, ...
  • Любовь живет три года / Lamour dure trois ans (Фредерик Бегбедер / Frederic ...
  • Любовь живет три года / Lamour dure trois ans (Фредерик Бегбедер / Frederic ...
  • Любовь живет три года / Lamour dure trois ans (Фредерик Бегбедер / Frederic ...
  • Учитель на замену / Detachment (Тони Кэй, драма, 2011) [BDRip 720р, Професс ...
  • «Старый» Новый год / New Years Eve (Гэрри Маршалл, мелодрама, комедия, 2011 ...
  • «Весёлые» каникулы / Get the Gringo (Адриан Грюнберг, Боевик, комедия, 2012 ...
  • Откровения / Elles (Малгожата Шумовска, Драма, 2011) [BDRip 720p, Профессио ...
  • Любовь / Love (Уильям Юбэнк, Фантастика, драма, 2011) [BDRip 720p, Професси ...
  • Жажда странствий / Wanderlust (Дэвид Уэйн, Мелодрама, комедия, 2012) [BDRip ...
  • Любовь С Препятствиями / Un Bonheur Narrive Jamais Seul (Джеймс Хат, Мелодр ...
  • Третий лишний / Ted (Сет МакФарлейн, Фэнтези, комедия, 2012) [BDRip 720p, Д ...
  • Странная жизнь Тимоти Грина / The Odd Life of Timothy Green (Питер Хеджес, ...
  • Возлюбленные / Les bien-aimés (Кристоф Оноре, Драма, 2011) [BDRip 720p, Дуб ...
  • Информация
    Посетители, находящиеся в группе Гости, не могут оставлять комментарии к данной публикации.