вход на сайт

Имя пользователя :
Пароль :

Восстановление пароля Регистрация
«Весёлые» каникулы / Get the Gringo (Адриан Грюнберг, Боевик, комедия, 2012) [BDRip 720p, Дубляж, Украинский, Оригинал, Sub]
Рейтинг:
(голосов: 1)



[img]{THEME}/images/logopost.png[/img]



«Весёлые» каникулы / Get the Gringo

Год выпуска: 2012
Страна: США
Производство: Airborne Productions, Icon Productions
Жанр: Боевик, комедия

Режиссёр: Адриан Грюнберг
В ролях: Мэл Гибсон, Кевин Эрнандез, Долорес Эредия, Хесус Очоа, Петер Стормаре, Дин Норрис, Боб Гантон, Скотт Коэн, Патрик Бошо, Стефани Николь Лемелин

Перевод: Дубляж, Украинский, Оригинал
Субтитры: Russian, English

Описание: Лента расскажет о пойманном мексиканскими властями преступнике, заключенном в полную наркотиков и насилия тюрьму.
Качество:BDRip 720p
Продолжительность: 01:35:59 час.


Формат: MKV
Видео кодек: x264
Аудио кодек: AC3, DTS
Видео: 1280x534 (2.40:1), 23.976 fps, x264 ~5700 kbps avg,0.348 bit/pixel
Аудио#1: 48 kHz, DTS, 3/2 (L,C,R,l,r) + LFE ch, ~755 kbps avg (RUS)
Аудио#2: 48 kHz, AC3 Dolby Digital, 3/2 (L,C,R,l,r) + LFE ch, ~384 kbps(UKR)
Аудио#3: 48 kHz, DTS, 3/2 (L,C,R,l,r) + LFE ch, ~1510.00 kbps avg (ENG)


Дата премьеры (мир): 15 марта 2012
Дата премьеры (РФ): 22 марта 2012, «West»

MediaInfo ▼General
Unique ID : 194298303550457083348086671165275626892 (0x922C7DF9F29133BEA1F7116A8555DD8C)
Complete name : Vesjolye.kanikuly.2012.D.BDRip.720p.IRONCLUB.mkv
Format : Matroska
Format version : Version 2
File size : 5.60 GiB
Duration : 1h 35mn
Overall bit rate : 8 348 Kbps
Movie name : IRONCLUB
Encoded date : UTC 2012-07-06 06:27:55
Writing application : mkvmerge v4.9.1 (Ich will) built on Jul 11 2011 23:53:15
Writing library : libebml v1.2.1 + libmatroska v1.1.1

Video
ID : 1
Format : AVC
Format/Info : Advanced Video Codec
Format profile : [email protected]
Format settings, CABAC : Yes
Format settings, ReFrames : 12 frames
Codec ID : V_MPEG4/ISO/AVC
Duration : 1h 35mn
Bit rate : 5 700 Kbps
Width : 1 280 pixels
Height : 534 pixels
Display aspect ratio : 2.40:1
Frame rate : 23.976 fps
Color space : YUV
Chroma subsampling : 4:2:0
Bit depth : 8 bits
Scan type : Progressive
Bits/(Pixel*Frame) : 0.348
Stream size : 3.71 GiB (66%)
Title : Get the gringo (2011)
Writing library : x264 core 125 r2200 999b753
Encoding settings : cabac=1 / ref=12 / deblock=1:-3:-3 / analyse=0x3:0x113 / me=umh / subme=10 / psy=1 / psy_rd=1.15:0.00 / mixed_ref=1 / me_range=32 / chroma_me=1 / trellis=2 / 8x8dct=1 / cqm=0 / deadzone=21,11 / fast_pskip=0 / chroma_qp_offset=-2 / threads=18 / lookahead_threads=3 / sliced_threads=0 / nr=0 / decimate=0 / interlaced=0 / bluray_compat=0 / constrained_intra=0 / bframes=8 / b_pyramid=2 / b_adapt=2 / b_bias=0 / direct=3 / weightb=1 / open_gop=0 / weightp=2 / keyint=240 / keyint_min=24 / scenecut=40 / intra_refresh=0 / rc_lookahead=120 / rc=2pass / mbtree=1 / bitrate=5700 / ratetol=1.0 / qcomp=0.72 / qpmin=0 / qpmax=69 / qpstep=4 / cplxblur=20.0 / qblur=0.5 / ip_ratio=1.40 / aq=1:1.15
Language : English
Default : Yes
Forced : Yes

Audio #1
ID : 2
Format : DTS
Format/Info : Digital Theater Systems
Codec ID : A_DTS
Duration : 1h 35mn
Bit rate mode : Constant
Bit rate : 755 Kbps
Channel(s) : 6 channels
Channel positions : Front: L C R, Side: L R, LFE
Sampling rate : 48.0 KHz
Bit depth : 24 bits
Compression mode : Lossy
Stream size : 518 MiB (9%)
Title : DTS 5.1 @ 768 kbps - Dub, R5
Language : Russian
Default : Yes
Forced : Yes

Audio #2
ID : 3
Format : AC-3
Format/Info : Audio Coding 3
Mode extension : CM (complete main)
Format settings, Endianness : Big
Codec ID : A_AC3
Duration : 1h 35mn
Bit rate mode : Constant
Bit rate : 384 Kbps
Channel(s) : 6 channels
Channel positions : Front: L C R, Side: L R, LFE
Sampling rate : 48.0 KHz
Bit depth : 16 bits
Compression mode : Lossy
Stream size : 264 MiB (5%)
Title : DD 5.1 @ 384 kbps - Dub, R5
Language : Ukrainian
Default : No
Forced : No

Audio #3
ID : 4
Format : DTS
Format/Info : Digital Theater Systems
Codec ID : A_DTS
Duration : 1h 35mn
Bit rate
3edf0f1aa20e1d60b305330eca1691d813baa617«Весёлые» каникулы / Get the Gringo (Адриан Грюнберг, Боевик, комедия, 2012) [BDRip 720p, Дубляж, Украинский, Оригинал, Sub] «Весёлые» каникулы / Get the Gringo (Адриан Грюнберг, Боевик, комедия, 2012) [BDRip 720p, Дубляж, Украинский, Оригинал, Sub] " />

Аплоадер: Админ, дата: 6-07-2012, 13:08, торрент скачан: 359 раз

Понравилась раздача? Посмотрите эти:
  • «Весёлые» каникулы / Get the Gringo (Адриан Грюнберг, боевик, триллер, драм ...
  • Толстяк на ринге / Here Comes the Boom (Фрэнк Корачи, Боевик, комедия, 201 ...
  • «Весёлые» каникулы / Get the Gringo (Адриан Грюнберг, Боевик, комедия, 2012 ...
  • «Весёлые» каникулы / Get the Gringo (Адриан Грюнберг, боевик, комедия, 2012 ...
  • «Весёлые» каникулы / Get the Gringo (Адриан Грюнберг, боевик, триллер, драм ...
  • «Весёлые» каникулы / Get the Gringo (Адриан Грюнберг, боевик, триллер, драм ...
  • Проект X: Дорвались / Project X (Нима Нуризаде, комедия, 2012) [BDRip 720p, ...
  • «Весёлые» каникулы / Get the Gringo (Адриан Грюнберг, Боевик, комедия, 2012 ...
  • Ворон / The Raven (Джеймс МакТиг, Триллер, детектив, 2012) [BDRip 720p, Дуб ...
  • «Весёлые» каникулы / Get the Gringo (Адриан Грюнберг, боевик, комедия, 2012 ...
  • «Весёлые» каникулы / Get the Gringo (Адриан Грюнберг, боевик, комедия, 2012 ...
  • «Весёлые» каникулы / Get the Gringo (Адриан Грюнберг, боевик, комедия, 2012 ...
  • «Весёлые» каникулы / Get the Gringo (Адриан Грюнберг, боевик, 2012) [DVDRip ...
  • «Весёлые» каникулы / Get the Gringo (Адриан Грюнберг, боевик, комедия, 2012 ...
  • «Весёлые» каникулы / Get the Gringo (Адриан Грюнберг, Боевик, комедия, 2012 ...
  • «Весёлые» каникулы / Get the Gringo (Адриан Грюнберг, Боевик, комедия, 2012 ...
  • «Весёлые» каникулы / Get the Gringo (Адриан Грюнберг, боевик, триллер, драм ...
  • «Весёлые» каникулы / Get the Gringo (Адриан Грюнберг, Боевик, Триллер, Драм ...
  • «Весёлые» каникулы / Get the Gringo (Адриан Грюнберг, Боевик, комедия, 2012 ...
  • «Весёлые» каникулы / Get the Gringo (Адриан Грюнберг, Боевик, комедия, 2012 ...
  • Информация
    Посетители, находящиеся в группе Гости, не могут оставлять комментарии к данной публикации.