вход на сайт

Имя пользователя :
Пароль :

Восстановление пароля Регистрация
Право на «лево» / Les infideles (Эмманюэль Берко, Фред Кавайе, Александр Кортес, Комедия, 2012) [BDRip 720p, Дубляж, Оригинал, Sub]
Рейтинг:
(голосов: 1)



[img]{THEME}/images/logopost.png[/img]



Право на «лево» / Les infideles

Год выпуска: 2012
Страна: Франция
Производство: Black Dynamite films, Canal+
Жанр: Комедия

Режиссёр: Эмманюэль Берко, Фред Кавайе, Александр Кортес
В ролях:Жан Дюжарден, Жиль Леллуш, Лионель Абелански, Фабрис Агоге, Пьер Бенуа, Вайолетт Бланкер, Венсан Боннассо, Бастьен Буллон, Гийом Кане, Селестин Шаплен

Перевод: Дубляж, Оригинал
Субтитры: French [Forced,Full]

Описание: Мужская неверность, во всех ее отчаянно абсурдных, умопомрачительно смешных проявлениях — чем не тема для новой комедии? Жан и Жиль в погоне за приключениями готовы на все. Жизнь их изрядно помотала, калейдоскопом меняя декорации вокруг: небольшой отель на окраине города сменялся клиникой для сексуально зависимых, а шикарный парижский ночной клуб роскошными казино Лас-Вегаса… Испробовав все возможные прелести бытия, приятели решают поближе заняться прекрасным полом, соблазняя и заманивая девушек в постель…Качество: BDRip 720p
Продолжительность:01:47:30 час.


Формат: MKV
Видео кодек: x264
Аудио кодек: AC3, DTS
Видео: 1280x546 (2.35:1), 23.976 fps, x264 ~5 350 kbps avg,0.319 bit/pixel
Аудио#1: 48 kHz, AC3 Dolby Digital, 3/2 (L,C,R,l,r) + LFE ch, ~448 kbpsDUB
Аудио#2: 48 kHz, DTS, 3/2 (L,C,R,l,r) + LFE ch, ~1510.00 kbps avg |Fre

Дата премьеры (мир): 29 февраля 2012
Дата премьеры (РФ): 19 апреля 2012, «Люксор»

MediaInfo ▼General
Unique ID : 172711835574205744605047141000017113601 (0x81EF16EF41554DD8A028A58DD5B47201)
Complete name : Pravo.na.levo.2012.D.BDRip.720p.IRONCLUB.mkv
Format : Matroska
Format version : Version 2
File size : 5.52 GiB
Duration : 1h 47mn
Overall bit rate : 7 348 Kbps
Movie name : IRONCLUB
Encoded date : UTC 2012-07-01 05:21:15
Writing application : mkvmerge v4.9.1 (Ich will) built on Jul 11 2011 23:53:15
Writing library : libebml v1.2.1 + libmatroska v1.1.1

Video
ID : 1
Format : AVC
Format/Info : Advanced Video Codec
Format profile : [email protected]
Format settings, CABAC : Yes
Format settings, ReFrames : 11 frames
Codec ID : V_MPEG4/ISO/AVC
Duration : 1h 47mn
Bit rate : 5 350 Kbps
Width : 1 280 pixels
Height : 546 pixels
Display aspect ratio : 2.35:1
Frame rate : 23.976 fps
Color space : YUV
Chroma subsampling : 4:2:0
Bit depth : 8 bits
Scan type : Progressive
Bits/(Pixel*Frame) : 0.319
Stream size : 3.94 GiB (71%)
Title : Les infideles (2012)
Writing library : x264 core 125 r2200 999b753
Encoding settings : cabac=1 / ref=11 / deblock=1:-3:-3 / analyse=0x3:0x113 / me=umh / subme=10 / psy=1 / psy_rd=1.00:0.00 / mixed_ref=1 / me_range=32 / chroma_me=1 / trellis=2 / 8x8dct=1 / cqm=0 / deadzone=21,11 / fast_pskip=0 / chroma_qp_offset=-2 / threads=12 / lookahead_threads=2 / sliced_threads=0 / nr=0 / decimate=1 / interlaced=0 / bluray_compat=0 / constrained_intra=0 / bframes=7 / b_pyramid=2 / b_adapt=2 / b_bias=0 / direct=3 / weightb=1 / open_gop=0 / weightp=2 / keyint=250 / keyint_min=23 / scenecut=40 / intra_refresh=0 / rc_lookahead=40 / rc=2pass / mbtree=0 / bitrate=5350 / ratetol=1.0 / qcomp=0.60 / qpmin=10 / qpmax=69 / qpstep=4 / cplxblur=20.0 / qblur=0.5 / vbv_maxrate=50000 / vbv_bufsize=62500 / nal_hrd=none / ip_ratio=1.40 / pb_ratio=1.30 / aq=1:1.00
Language : French
Default : Yes
Forced : Yes
Matrix coefficients : BT.709-5, BT.1361, IEC 61966-2-4 709, SMPTE RP177

Audio #1
ID : 2
Format : AC-3
Format/Info : Audio Coding 3
Mode extension : CM (complete main)
Format settings, Endianness : Big
Codec ID : A_AC3
Duration : 1h 47mn
Bit rate mode : Constant
Bit rate : 448 Kbps
Channel(s) : 6 channels
Channel positions : Front: L C R, Side: L R, LFE
Sampling rate : 48.0 KHz
Bit depth : 16 bits
Compression mode : Lossy
Stream size : 344 MiB (6%)
Title : DD 5.1 @ 448 kbps - Dub, R5
Language : Russian
Default : Yes
Forced : Yes

Audio #2
ID : 3
Format : DTS
Format/Info : Digital Theater Sy
33f44a0673290cf8976aa40af7780242c39f10f6Право на «лево» / Les infideles (Эмманюэль Берко, Фред Кавайе, Александр Кортес, Комедия, 2012) [BDRip 720p, Дубляж, Оригинал, Sub] Право на «лево» / Les infideles (Эмманюэль Берко, Фред Кавайе, Александр Кортес, Комедия, 2012) [BDRip 720p, Дубляж, Оригинал, Sub] " />

Аплоадер: Админ, дата: 1-07-2012, 13:03, торрент скачан: 359 раз

Понравилась раздача? Посмотрите эти:
  • Толстяк на ринге / Here Comes the Boom (Фрэнк Корачи, Боевик, комедия, 201 ...
  • Право на «лево» / Les infideles (Эмманюэль Берко, Фред Кавайе, Александр Ко ...
  • Право на «лево» / Les infideles (Эмманюэль Берко, Фред Кавайе, Александр Ко ...
  • Закон доблести / Act of Valor (Майк МакКой, Скотт Во, боевик, триллер, прик ...
  • Проект X: Дорвались / Project X (Нима Нуризаде, комедия, 2012) [BDRip 720p, ...
  • Джок / Jock (Дункан МакНили, мультфильм, комедия, приключения, семейный, 20 ...
  • «Весёлые» каникулы / Get the Gringo (Адриан Грюнберг, Боевик, комедия, 2012 ...
  • Ворон / The Raven (Джеймс МакТиг, Триллер, детектив, 2012) [BDRip 720p, Дуб ...
  • Немножко женаты / The Five-Year Engagement (Николас Столлер, Мелодрама, ком ...
  • Красные огни / Red Lights (Родриго Кортес, Ужасы, триллер, драма, 2012) [BD ...
  • Любовь С Препятствиями / Un Bonheur Narrive Jamais Seul (Джеймс Хат, Мелодр ...
  • Москва 2017 / Branded (Джейми Брэдшоу, Александр Дулерайн, фантастика, трил ...
  • Третий лишний / Ted (Сет МакФарлейн, Фэнтези, комедия, 2012) [BDRip 720p, Д ...
  • Право на «лево» / Les infideles (Эмманюэль Берко, Комедия, 2012) [320x240] ...
  • Право на «лево» / Les infideles (Эмманюэль Берко, Фред Кавайе, Александр Ко ...
  • Право на «лево» / Les infideles (Эмманюэль Берко, Фред Кавайе, Александр Ко ...
  • Право на «лево» / Les infideles (Эмманюэль Берко, Фред Кавайе, Александр Ко ...
  • Право на «лево» / Les infideles [2in1: Theatrical & Extended Cut] (Эмманюэл ...
  • Право на «лево» / Les infideles (Эмманюэль Берко, Фред Кавайе, Александр Ко ...
  • Право на «лево» / Les infideles (Эмманюэль Берко, Фред Кавайе, Олександр Ко ...
  • Информация
    Посетители, находящиеся в группе Гости, не могут оставлять комментарии к данной публикации.