вход на сайт

Имя пользователя :
Пароль :

Восстановление пароля Регистрация
Отель «Мэриголд»: Лучший из экзотических / The Best Exotic Marigold Hotel (Джон Мэдден, Драма, комедия, 2011) [BDRip 720p, Дубляж, Оригинал, Sub]
Рейтинг:
(голосов: 1)



[img]{THEME}/images/logopost.png[/img]



Отель «Мэриголд»: Лучший из экзотических / The Best Exotic Marigold Hotel

Год выпуска: 2011
Страна: Великобритания
Производство: Participant Media, Imagenation Abu Dhabi FZ, Blueprint Pictures
Жанр: Драма, комедия

Режиссёр: Джон Мэдден
В ролях: Джуди Денч, Билл Найи, Том Уилкинсон, Мэгги Смит, Патрик Пирсон, Хью Диксон, Джеймс Роулингс, Пол Бхаттачарджи, Пенелопа Уилтон, Лиза Тарбак

Перевод: Дубляж, Оригинал
Субтитры: Russian, Ukrainian, English

Описание: Фильм повествует о группе британских пенсионеров, которые решили «удалиться на покой» в менее затратную по расходам и гораздо более экзотическую Индию. Соблазнившись рекламой о заново восстановленном отеле «Мериголд» и в предвкушении жизни полной удовольствий и безделья, они прибывают на место, только чтобы обнаружить, что отель, на самом деле, представляет собой лишь бледную тень своего былого величия. Но, несмотря на то, что окружающая обстановка далека от той роскоши, которую они себе представляли, совместные приключения бесповоротно меняют каждого из них, и они осознают, что можно начать жить заново и найти любовь, если отпустить прошлое...

Сэмпл

IMDB: 7.50 (8 018)
КиноПоиск: 7.776 (779)

Качество: BDRip 720p
Продолжительность: 02:03:45 час.


Формат: MKV
Видео кодек: x264
Аудио кодек: DTS
Видео:1280x544 (2.35:1), 23.976 fps , x264 ~6 550 kbps avg, 0.389 bit/pixel
Аудио#1: 48 kHz, DTS, 6 channels, ~755 kbps Russian (DUB)
Аудио#2: 48 kHz, DTS, 6 channels, ~1510 kbps English

Дата премьеры (мир): 30 ноября 2011
Дата премьеры (РФ): 22 марта 2012, «Двадцатый Век Фокс СНГ»

MediaInfo ▼
General
Unique ID : 246329140089271547480362958321435512532 (0xB9514446EE203472BAD0D55F3BCF8ED4)
Complete name : Otel.Mjerigold.Luchshij.iz.jekzoticheskih.2011.D.BDRip.720p.IRONCLUB.mkv
Format : Matroska
Format version : Version 2
File size : 7.59 GiB
Duration : 2h 3mn
Overall bit rate : 8 775 Kbps
Movie name : IRONCLUB
Encoded date : UTC 2012-06-21 12:02:40
Writing application : mkvmerge v4.9.1 (Ich will) built on Jul 11 2011 23:53:15
Writing library : libebml v1.2.1 + libmatroska v1.1.1

Video
ID : 1
Format : AVC
Format/Info : Advanced Video Codec
Format profile : [email protected]
Format settings, CABAC : Yes
Format settings, ReFrames : 12 frames
Codec ID : V_MPEG4/ISO/AVC
Duration : 2h 3mn
Bit rate : 6 500 Kbps
Width : 1 280 pixels
Height : 544 pixels
Display aspect ratio : 2.35:1
Frame rate : 23.976 fps
Color space : YUV
Chroma subsampling : 4:2:0
Bit depth : 8 bits
Scan type : Progressive
Bits/(Pixel*Frame) : 0.389
Stream size : 5.48 GiB (72%)
Title : The.Best.Exotic.Marigold.Hotel.2012.720p.BluRay.x264.DTS-HDChina
Writing library : x264 core 125 r2200 999b753
Encoding settings : cabac=1 / ref=12 / deblock=1:-3:-3 / analyse=0x3:0x113 / me=umh / subme=10 / psy=1 / psy_rd=1.10:0.00 / mixed_ref=1 / me_range=32 / chroma_me=1 / trellis=2 / 8x8dct=1 / cqm=0 / deadzone=21,11 / fast_pskip=0 / chroma_qp_offset=-2 / threads=18 / lookahead_threads=3 / sliced_threads=0 / nr=0 / decimate=0 / interlaced=0 / bluray_compat=0 / constrained_intra=0 / bframes=8 / b_pyramid=2 / b_adapt=2 / b_bias=0 / direct=3 / weightb=1 / open_gop=0 / weightp=2 / keyint=240 / keyint_min=24 / scenecut=40 / intra_refresh=0 / rc_lookahead=240 / rc=2pass / mbtree=1 / bitrate=6500 / ratetol=1.0 / qcomp=0.70 / qpmin=0 / qpmax=69 / qpstep=4 / cplxblur=20.0 / qblur=0.5 / ip_ratio=1.40 / aq=1:1.00
Language : English
Default : Yes
Forced : Yes

Audio #1
ID : 2
Format : DTS
Format/Info : Digital Theater Systems
Codec ID : A_DTS
Duration : 2h 3mn
Bit rate mode : Constant
Bit rate : 755 Kbps
Channel(s) : 6 channels
Channel positions : Front: L C R, Side: L R, LFE
Sampling rate : 48.0 KHz
Bit depth : 24 bits
Compression mode : Lossy
Stream size : 668 MiB (9%)
Title : DTS 5.1 @ 768 kbps - Dub, EUR
Language : Russian
Default : Yes
Forced : Yes

Audio #2
ID : 3
Format : DTS
Format/Info : Digital Theater Systems
Codec ID : A_DTS
Duration :
3a0c6b627615503f40e84083b4cc58f49ebf8ddeОтель «Мэриголд»: Лучший из экзотических / The Best Exotic Marigold Hotel (Джон Мэдден, Драма, комедия, 2011) [BDRip 720p, Дубляж, Оригинал, Sub] Отель «Мэриголд»: Лучший из экзотических / The Best Exotic Marigold Hotel (Джон Мэдден, Драма, комедия, 2011) [BDRip 720p, Дубляж, Оригинал, Sub] " />

Аплоадер: Админ, дата: 21-06-2012, 19:20, торрент скачан: 359 раз

Понравилась раздача? Посмотрите эти:
  • Жизнь Пи / Life Of Pi (Энг Ли, Драма, приключения, 2012) [BDRip 720p, Профе ...
  • Суррогат / The Sessions (Бен Луин, драма, 2012) [BDRip 720p, Профессиональн ...
  • Весенние надежды / Hope Springs (Дэвид Фрэнкел, Драма, мелодрама, комедия, ...
  • Анна Каренина / Anna Karenina (Джо Райт, Драма, мелодрама, 2012) [BDRip 720 ...
  • Толстяк на ринге / Here Comes the Boom (Фрэнк Корачи, Боевик, комедия, 201 ...
  • Отель «Мэриголд»: Лучший из экзотических / The Best Exotic Marigold Hotel ( ...
  • Отель «Мэриголд»: Лучший из экзотических / The Best Exotic Marigold Hotel ( ...
  • Отель «Мэриголд»: Лучший из экзотических / The Best Exotic Marigold Hotel ( ...
  • Закон доблести / Act of Valor (Майк МакКой, Скотт Во, боевик, триллер, прик ...
  • Проект X: Дорвались / Project X (Нима Нуризаде, комедия, 2012) [BDRip 720p, ...
  • Джок / Jock (Дункан МакНили, мультфильм, комедия, приключения, семейный, 20 ...
  • «Весёлые» каникулы / Get the Gringo (Адриан Грюнберг, Боевик, комедия, 2012 ...
  • Ворон / The Raven (Джеймс МакТиг, Триллер, детектив, 2012) [BDRip 720p, Дуб ...
  • Красные огни / Red Lights (Родриго Кортес, Ужасы, триллер, драма, 2012) [BD ...
  • Рок на века / Rock of Ages (Адам Шенкман, Мюзикл, драма, мелодрама, комедия ...
  • Супер Майк / Magic Mike (Стивен Содерберг, Драма, комедия, 2012) [BDRip 720 ...
  • Дружинники / The Watch (Акива Шаффер, Фантастика, комедия, 2012) [BDRip 720 ...
  • Третий лишний / Ted (Сет МакФарлейн, Фэнтези, комедия, 2012) [BDRip 720p, Д ...
  • На Дороге / On The Road (Уолтер Саллес, Драма, приключения, 2012) [BDRip 72 ...
  • Возлюбленные / Les bien-aimés (Кристоф Оноре, Драма, 2011) [BDRip 720p, Дуб ...
  • Отель «Мэриголд»: Лучший из экзотических / The Best Exotic Marigold Hotel ( ...
  • [EN] Отель «Мэриголд»: Лучший из экзотических / The Best Exotic Marigold Ho ...
  • Отель «Мэриголд»: Лучший из экзотических / The Best Exotic Marigold Hotel ( ...
  • Отель «Мэриголд»: Лучший из экзотических / The Best Exotic Marigold Hotel ( ...
  • Отель «Мэриголд»: Лучший из экзотических / The Best Exotic Marigold Hotel ( ...
  • Информация
    Посетители, находящиеся в группе Гости, не могут оставлять комментарии к данной публикации.