вход на сайт

Имя пользователя :
Пароль :

Восстановление пароля Регистрация
Стыд / Shame (Стив МакКуин, драма, 2011) [BDRemux 1080p, Дублированный + Одноголосый закадровый + Оригинал + Sub]
Рейтинг:
(голосов: 1)



[img]{THEME}/images/logopost.png[/img]



Стыд / Shame

Год выпуска: 2011
Страна: Великобритания
Производство: Film4, HanWay Films, Lip Sync Productions, Momentum Pictures, See-Saw Films
Жанр: драма

Режиссёр: Стив МакКуин
В ролях: Майкл Фассбендер, Кэри Маллиган, Джеймс Бэдж Дэйл, Николь Бихэйр, Алекс Манетт, Люсиль Уолтерс, Мари-Анхе Рамирес, Ханна Уэр, Элизабет Масуччи, Рэйчел Фаррар

Перевод: Дублированный + Одноголосый закадровый, Ю.Сербин + Оригинал
Субтитры: Russian (ak79, Serene+dub), English

Описание: Главный герой — житель Нью-Йорка, страдающий от эротомании и неспособный контролировать свою сексуальную жизнь. Он пытается обрести поддержку своих родных, а также ищет помощи у сотрудников.
"Знаете ли вы, что..." ▼-Фильм был снят за 25 дней.
-Несмотря на бюджет в 6.5 млн. долларов, кинокомпания Fox Searchlight Pictures заплатила лишь 600 тыс. долларов за прокат фильма.
-Сцена, где Брэндон слышит, как его сестра поет в ресторане, была снята в режиме реального времени. Так как Джеймс Бэдж Дэйл и Майкл Фассбендер никогда до этого не слышали ее голос, их реакция была настоящей. Сцена снималась в 3 часа ночи, а камеры были сфокусированы на трех главных персонажах.


Качество: BDRemux 1080p Сэмпл
Продолжительность: 01:41:08 час.

Формат: MKV
Видео кодек: AVC
Аудио кодек: AC3, DTS-HD MA 5.1
Видео: 1920x1080 (16:9), 23,976 fps, AVC ~37.5 Mbps, 0.754 bit/pix
Аудио: 48 kHz, AC3, 3/2 (L,C,R,l,r) + LFE ch, ~640.00 kbps avg | Russian (DUB)
Аудио: 48 kHz, DTS-HD MA 5.1, 3/2 (L,C,R,l,r) + LFE ch, ~1509.00 kbps avg | Russian (AVO)
Аудио: 48 kHz, DTS-HD MA 5.1, 3/2 (L,C,R,l,r) + LFE ch, ~1509.00 kbps avg | English

Премьера (мир): 4 сентября 2011
Премьера (РФ): 23 февраля 2012, «Кино без границ»
MediaInfo ▼General
Unique ID : 254439698464587413702053560996123425908 (0xBF6B4DADADD1127095D4964B8B18BC74)
Complete name : E:Styd.2011.BDRemux.mkv
Format : Matroska
File size : 30.2 GiB
Duration : 1h 41mn
Overall bit rate : 42.7 Mbps
Movie name : Стыд
Encoded date : UTC 2012-06-19 18:10:47
Writing application : mkvmerge v5.1.0 (And so it goes) built on Nov 28 2011 23:58:28
Writing library : libebml v1.2.3 + libmatroska v1.3.0
Video
ID : 1
Format : AVC
Format/Info : Advanced Video Codec
Format profile : [email protected]
Format settings, CABAC : Yes
Format settings, ReFrames : 4 frames
Format settings, GOP : M=2, N=26
Codec ID : V_MPEG4/ISO/AVC
Duration : 1h 41mn
Bit rate mode : Variable
Bit rate : 37.5 Mbps
Maximum bit rate : 38.0 Mbps
Width : 1 920 pixels
Height : 1 080 pixels
Display aspect ratio : 16:9
Frame rate : 23.976 fps
Color space : YUV
Chroma subsampling : 4:2:0
Bit depth : 8 bits
Scan type : Progressive
Bits/(Pixel*Frame) : 0.754
Stream size : 26.5 GiB (88%)
Title : Стыд
Language : English
Audio #1
ID : 2
Format : AC-3
Format/Info : Audio Coding 3
Mode extension : CM (complete main)
Codec ID : A_AC3
Duration : 1h 41mn
Bit rate mode : Constant
Bit rate : 640 Kbps
Channel(s) : 6 channels
Channel positions : Front: L C R, Side: L R, LFE
Sampling rate : 48.0 KHz
Bit depth : 16 bits
Compression mode : Lossy
Stream size : 463 MiB (1%)
Title : AC3 - Дубляж
Language : Russian
Audio #2
ID : 3
Format : DTS
Format/Info : Digital Theater Systems
Format profile : MA / Core
Codec ID : A_DTS
Duration : 1h 41mn
Bit rate mode : Variable
Bit rate : 1 900 Kbps / 1 510 Kbps
Channel(s) : 6 channels
Channel positions : Front: L C R, Side: L R, LFE
Sampling rate : 48.0 KHz
Bit depth : 24 bits
Compression mode : Lossless / Lossy
Title : DTS-HD - AVO (Ю.Сербин)
Language : Russian
Audio #3
ID : 4
Format : DTS
Format/Info : Digital Theater Systems
Format profile : MA / Core
Codec ID : A_DTS
Duration : 1h 41mn
Bit rate mode : Variable
Bit rate : 1 876 Kbps / 1 510 Kbps
Channel(s) : 6 channels
Channel positions : Front: L C R, Side: L R, LFE
Sampling rate : 48.0 KHz
Bit depth : 24 bits
Compression mode : Lossless / Lossy
Title : DTS-HD
Language : English
Text
e1d45599627b97fa74970a1caf1f6f09a073b8b0Стыд / Shame (Стив МакКуин, драма, 2011) [BDRemux 1080p, Дублированный + Одноголосый закадровый + Оригинал + Sub] Стыд / Shame (Стив МакКуин, драма, 2011) [BDRemux 1080p, Дублированный + Одноголосый закадровый + Оригинал + Sub] " />

Аплоадер: Админ, дата: 21-06-2012, 11:55, торрент скачан: 359 раз

Понравилась раздача? Посмотрите эти:
  • Kara / Speed Up [2012, K-Pop, J-Pop, Dance, BDRemux]
  • Штурм Белого дома / White House Down (Роланд Эммерих, боевик, триллер, 2013 ...
  • Нубы / Noobz (Блейк Фриман, Комедия, 2012) [BDRemux 1080p, Профессиональный ...
  • Дом с паранормальными явлениями / A Haunted House (Майкл Тиддес, Ужасы, ком ...
  • Родительский беспредел / Parental Guidance (Энди Фикмен, Комедия, семейный, ...
  • Самый страшный фильм 3D / Dead Before Dawn 3D (Эйприл Маллен, Ужасы, комеди ...
  • Стыд / Shame (Стив МакКуин, Драма, 2011) [HDRip - AVC, Дубляж + SUB]
  • Стыд / Shame (Стив МакКуин, Драма, 2011) [BDRip - AVC, Дубляж + Оригинал + ...
  • Стыд / Shame (Стив МакКуин, драма, 2011) [HDRip-AVC, Дублированный + Субтит ...
  • Старая добрая оргия / A Good Old Fashioned Orgy (Алекс Грегори, комедия, 20 ...
  • Иван Царевич и Серый Волк (Владимир Торопчин, мультфильм, семейный, 2011) [ ...
  • Стыд / Shame (Стив МакКуин, драма, 2011) [BDRip 1080p, полное дублирование, ...
  • Стыд / Shame (Стив МакКуин, драма, 2011) [BDRip 720p, Дублированный + Ориги ...
  • Пол: Секретный материальчик / Расширенная версия / Paul (Грег Моттола, фант ...
  • Притворись моей женой / Just go with it (Деннис Дуган, мелодрама, комедия, ...
  • Рапунцель: Счастлива навсегда / Tangled Ever After ( Нэйтан Грено, Байрон Х ...
  • Бульвар страха / Rosewood Lane (Виктор Сальва, Ужасы, триллер, 2011) [BD-Re ...
  • Стыд / Shame (Стив МакКуин, Драма, 2011) [BDRip-AVC, Профессиональный (полн ...
  • Призрак в школе / Haunted High (Джеффри Скотт Ландо, ужасы, фантастика, 201 ...
  • Шкатулка проклятия / The Possession (Уле Борнедаль, ужасы, триллер, 2012) [ ...
  • Телескоп Хаббл / IMAX - Hubble (Тони Майерс, документальный, 2010) [BDRemux ...
  • Стыд / Shame (Стив МакКуин, драма, 2011) [HDRip, Профессиональный (полное д ...
  • Стыд / Shame (Стив МакКуин, драма, 2011) [HDRip, Дублированный + Оригинал] ...
  • Стыд / Shame (Стив МакКуин, Драма, 2011) [BDRip, Дубляж]
  • Стыд / Shame (Стив МакКуин, драма, 2011) [BDRip, Авторский (одноголосый, за ...
  • Информация
    Посетители, находящиеся в группе Гости, не могут оставлять комментарии к данной публикации.