вход на сайт

Имя пользователя :
Пароль :

Восстановление пароля Регистрация
Мачо и ботан / 21 Jump Street (Фил Лорд, Крис Миллер, боевик, комедия, 2012) [BDRip 720p, Дублированный + Дублированный (Ukr) + Оригинал + Commentary + Sub]
Рейтинг:
(голосов: 1)



[img]{THEME}/images/logopost.png[/img]



Мачо и ботан / 21 Jump Street

Год выпуска: 2012
Страна: США
Производство: Stephen J. Cannell Productions, Cannell Studios, Columbia Pictures
Жанр: боевик, комедия, криминал

Режиссёр: Фил Лорд, Крис Миллер
В ролях: Джона Хилл, Ченнинг Татум, Бри Ларсон, Дэйв Франко, Роб Риггл, Айс Кьюб, ДеРэй Дэвис, Дакс Флэйм, Крис Парнелл, Элли Кемпер

Перевод: Дублированный + Дублированный (Ukr) + Оригинал + Commentary
Субтитры: Русские, английские

Описание: Двое новоиспеченных горе-полицейских отправляются на сверхсекретное задание. Им предстоит заново стать учениками средней школы, в которой процветает наркоторговля.

IMDB: 7.70 (24 558)
КиноПоиск: 7.606 (6 098)

Качество: BDRip 720p | Сэмпл
Продолжительность: 01:49:30 час.

Формат: MKV
Видео кодек: AVC
Аудио кодек: AC3
Видео:1 280x534 (2.40:1), 23.976 fps, AVC ~4391 Kbps, 0.259 bit/pixel
Аудио#1: 48 kHz, AC3 Dolby Digital, 3/2 (L,C,R,l,r) + LFE ch, ~448 kbps(RUS)
Аудио#2: 48 kHz, AC3 Dolby Digital, 3/2 (L,C,R,l,r) + LFE ch, ~448 kbps(UKR)
Аудио#3: 48 kHz, AC3, 3/2 (L,C,R,l,r) + LFE ch, ~640 kbps(ENG)
Аудио#4: 48 kHz, AAC-LC, 2 ch, ~96 kbps(Commentary)

Дата премьеры (мир): 12 марта 2012
Дата премьеры (РФ): 12 апреля 2012, «WDSSPR»

MI ▼General
Unique ID : 255085911905227737831532978688373782764 (0xBFE7C275FEB5EF57B88A3AFF049B78EC)
Complete name : D:21.Jump.Street.2012.720p.BluRay.DD.5.1.x264-ThD.mkv
Format : Matroska
Format version : Version 2
File size : 4.59 GiB
Duration : 1h 49mn
Overall bit rate : 5 977 Kbps
Movie name : -Talian-
Encoded date : UTC 2012-06-15 20:10:53
Writing application : mkvmerge v5.3.0 (I could have danced) built on Feb 9 2012 10:38:07
Writing library : libebml v1.2.3 + libmatroska v1.3.0
Video
ID : 1
Format : AVC
Format/Info : Advanced Video Codec
Format profile : [email protected]
Format settings, CABAC : Yes
Format settings, ReFrames : 12 frames
Codec ID : V_MPEG4/ISO/AVC
Duration : 1h 49mn
Width : 1 280 pixels
Height : 534 pixels
Display aspect ratio : 2.40:1
Frame rate : 23.976 fps
Color space : YUV
Chroma subsampling : 4:2:0
Bit depth : 8 bits
Scan type : Progressive
Title : 21 Jump Street 2012 720p BluRay DD 5.1 x264-ThD
Writing library : x264 core 125 r2200 999b753
Encoding settings : cabac=1 / ref=12 / deblock=1:-3:-3 / analyse=0x3:0x133 / me=esa / subme=11 / psy=1 / psy_rd=0.90:0.00 / mixed_ref=1 / me_range=48 / chroma_me=1 / trellis=2 / 8x8dct=1 / cqm=0 / deadzone=21,11 / fast_pskip=0 / chroma_qp_offset=-2 / threads=18 / lookahead_threads=3 / sliced_threads=0 / nr=0 / decimate=0 / interlaced=0 / bluray_compat=0 / constrained_intra=0 / bframes=9 / b_pyramid=2 / b_adapt=2 / b_bias=0 / direct=3 / weightb=1 / open_gop=0 / weightp=2 / keyint=250 / keyint_min=23 / scenecut=40 / intra_refresh=0 / rc=crf / mbtree=0 / crf=15.0 / qcomp=0.75 / qpmin=0 / qpmax=69 / qpstep=4 / ip_ratio=1.40 / pb_ratio=1.30 / aq=2:0.60
Language : English
Default : No
Forced : No
Audio #1
ID : 2
Format : AC-3
Format/Info : Audio Coding 3
Mode extension : CM (complete main)
Format settings, Endianness : Big
Codec ID : A_AC3
Duration : 1h 49mn
Bit rate mode : Constant
Bit rate : 448 Kbps
Channel(s) : 6 channels
Channel positions : Front: L C R, Side: L R, LFE
Sampling rate : 48.0 KHz
Bit depth : 16 bits
Compression mode : Lossy
Stream size : 352 MiB (7%)
Title : DUB-R5
Language : Russian
Default : Yes
Forced : No
Audio #2
ID : 3
Format : AC-3
Format/Info : Audio Coding 3
Mode extension : CM (complete main)
Format settings, Endianness : Big
Codec ID : A_AC3
Duration : 1h 49mn
Bit rate mode : Constant
Bit rate : 448 Kbps
Channel(s) : 6 channels
Channel positions : Front: L C R, Side: L R, LFE
Sampling rate : 48.0 KHz
Bit depth : 16 bits
Compression mode : Lossy
Stream size : 352 MiB (7%)
Title : DUB-R5
Language : Ukrainian
Default : No
Forced : No
Audio #3
ID : 4
Format : AC-3
Format/Info : Audio Coding 3
Mode extension : CM (c
5c1517acb68a603eb49333614bc5b127657b8a56Мачо и ботан / 21 Jump Street (Фил Лорд, Крис Миллер, боевик, комедия, 2012) [BDRip 720p, Дублированный + Дублированный (Ukr) + Оригинал + Commentary + Sub] Мачо и ботан / 21 Jump Street (Фил Лорд, Крис Миллер, боевик, комедия, 2012) [BDRip 720p, Дублированный + Дублированный (Ukr) + Оригинал + Commentary + Sub] " />

Аплоадер: Админ, дата: 16-06-2012, 12:50, торрент скачан: 359 раз

Понравилась раздача? Посмотрите эти:
  • [Трейлер] Мачо и ботан 2 / 22 Jump Street (Фил Лорд, Крис Миллер, боевик, к ...
  • Мачо и ботан / 21 Jump Street (Фил Лорд, Крис Миллер, Боевик, комедия, крим ...
  • Мачо и ботан / 21 Jump Street (Фил Лорд, Крис Миллер, комедия, 2012) [BDRip ...
  • Мачо и ботан / 21 Jump Street (Фил Лорд, Крис Миллер, боевик, комедия, 2012 ...
  • Мачо и ботан / 21 Jump Street (Фил Лорд, Крис Миллер, боевик, комедия, 2012 ...
  • Мачо и ботан / 21 Jump Street (Фил Лорд, Крис Миллер, Боевик, 2012) [BDRemu ...
  • «Весёлые» каникулы / Get the Gringo (Адриан Грюнберг, Боевик, комедия, 2012 ...
  • Мачо и ботан / 21 Jump Street (Фил Лорд, Крис Миллер, Боевик, комедия, крим ...
  • Пираньи 3DD / Piranha 3DD (Джон Гулажер, ужасы, триллер, комедия, 2012) [BD ...
  • Мадагаскар 3 / Madagascar 3: Europes Most Wanted (Эрик Дарнелл, Том МакГрат ...
  • [Трейлер] Джамп стрит, 21 / 21 Jump Street (Фил Лорд, Крис Миллер, боевик, ...
  • Мачо и ботан / 21 Jump Street (Фил Лорд, Крис Миллер, боевик, комедия, 2012 ...
  • Мачо и ботан / 21 Jump Street (Фил Лорд, Крис Миллер, боевик, комедия, 2012 ...
  • [EN] Мачо и ботан / 21 Jump Street (Фил Лорд, Крис Миллер, боевик, комедия, ...
  • Мачо и ботан / 21 Jump Street (Фил Лорд, Крис Миллер, боевик, комедия, 2012 ...
  • Мачо и ботан / 21 Jump Street (Фил Лорд, Крис Миллер, боевик, комедия, 2012 ...
  • Мачо и ботан / 21 Jump Street (Фил Лорд, Крис Миллер, боевик, комедия, 2012 ...
  • Мачо и ботан / 21 Jump Street (Фил Лорд, Крис Миллер, комедия, 2012) [BDRip ...
  • Мачо и ботан / 21 Jump Street (Фил Лорд, Kрuc Mиллep, Кoмeдия, кpиминaл, 20 ...
  • Мачо и ботан / 21 Jump Street (Фил Лорд, Крис Миллер, Боевик, комедия, крим ...
  • Информация
    Посетители, находящиеся в группе Гости, не могут оставлять комментарии к данной публикации.