вход на сайт

Имя пользователя :
Пароль :

Восстановление пароля Регистрация
Проект X: Дорвались / Project X (Нима Нуризаде, комедия, 2012) [BDRip 720p, Дубляж, Оригинал, Sub]
Рейтинг:
(голосов: 1)



[img]{THEME}/images/logopost.png[/img]



Проект X: Дорвались / Project X

Год выпуска: 2012
Страна: США
Производство: Green Hat Films, Silver Pictures
Жанр: комедия

Режиссёр: Нима Нуризаде
В ролях:Томас Манн, Оливер Купер, Джонатан Даниэль Браун, Дакс Флэйм, Кирби Блисс Блэнтон, Брэйди Эндер, Ник Нервис, Алексис Кнапп, Майлз Теллер, Питер Маккензи

Перевод: Дубляж, Оригинал
Субтитры:Russian [Forced,Full], Ukrainian, English [SDH]

Описание: Сюжет вращается вокруг троих одноклассников, решивших устроить крутую вечеринку и прославиться на всю округу — правда, удержать события под контролем у них не получилось.

Сэмпл

IMDB: 6.60 (26 840)
КиноПоиск: 7.228 (11 335)

Качество:BDRip 720p
Продолжительность: 01:27:53 час.


Формат: MKV
Видео кодек: x264
Аудио кодек: AC3, DTS
Видео: 1280x 720 (16:9), 23,976fps, x264 ~6 730 kbps avg, 0.305 bit/pixel
Аудио#1: 48 kHz, AC3 Dolby Digital, 3/2 (L,C,R,l,r) + LFE ch, ~384 kbps
Аудио#2: 48 kHz, DTS, 6 channels, ~1510 kbps

Дата премьеры (мир): 1 марта 2012
Дата премьеры (РФ): 2 апреля 2012, «Каро-Премьер»

MediaInfo ▼
General
Unique ID : 239758915414736618020989830239456816624 (0xB45FE330C8336291A5F0548D14D36DF0)
Complete name : Projekt.X.Dorvalis.2012.D.BDRip.720p.IRONCLUB.mkv
Format : Matroska
Format version : Version 2
File size : 5.32 GiB
Duration : 1h 27mn
Overall bit rate : 8 662 Kbps
Encoded date : UTC 2012-06-14 12:28:03
Writing application : mkvmerge v4.9.1 (Ich will) built on Jul 11 2011 23:53:15
Writing library : libebml v1.2.1 + libmatroska v1.1.1

Video
ID : 1
Format : AVC
Format/Info : Advanced Video Codec
Format profile : [email protected]
Format settings, CABAC : Yes
Format settings, ReFrames : 9 frames
Codec ID : V_MPEG4/ISO/AVC
Duration : 1h 27mn
Bit rate : 6 730 Kbps
Width : 1 280 pixels
Height : 720 pixels
Display aspect ratio : 16:9
Frame rate : 23.976 fps
Color space : YUV
Chroma subsampling : 4:2:0
Bit depth : 8 bits
Scan type : Progressive
Bits/(Pixel*Frame) : 0.305
Stream size : 4.05 GiB (76%)
Title : Project X (2012)
Writing library : x264 core 124 r2197 69a0443
Encoding settings : cabac=1 / ref=9 / deblock=1:-3:-3 / analyse=0x3:0x113 / me=umh / subme=11 / psy=1 / psy_rd=1.00:0.00 / mixed_ref=1 / me_range=32 / chroma_me=1 / trellis=2 / 8x8dct=1 / cqm=0 / deadzone=21,11 / fast_pskip=0 / chroma_qp_offset=-2 / threads=6 / sliced_threads=0 / nr=0 / decimate=1 / interlaced=0 / bluray_compat=0 / constrained_intra=0 / bframes=8 / b_pyramid=2 / b_adapt=2 / b_bias=0 / direct=3 / weightb=1 / open_gop=0 / weightp=2 / keyint=250 / keyint_min=24 / scenecut=40 / intra_refresh=0 / rc_lookahead=40 / rc=2pass / mbtree=0 / bitrate=6730 / ratetol=1.0 / qcomp=0.60 / qpmin=0 / qpmax=69 / qpstep=4 / cplxblur=20.0 / qblur=0.5 / vbv_maxrate=50000 / vbv_bufsize=50000 / nal_hrd=none / ip_ratio=1.40 / pb_ratio=1.30 / aq=1:1.00
Language : English
Default : Yes
Forced : No

Audio #1
ID : 2
Format : AC-3
Format/Info : Audio Coding 3
Mode extension : CM (complete main)
Format settings, Endianness : Big
Codec ID : A_AC3
Duration : 1h 27mn
Bit rate mode : Constant
Bit rate : 384 Kbps
Channel(s) : 6 channels
Channel positions : Front: L C R, Side: L R, LFE
Sampling rate : 48.0 KHz
Bit depth : 16 bits
Compression mode : Lossy
Stream size : 241 MiB (4%)
Title : DD 5.1 @ 384 kbps - Dub, R5
Language : Russian
Default : Yes
Forced : Yes

Audio #2
ID : 3
Format : DTS
Format/Info : Digital Theater Systems
Codec ID : A_DTS
Duration : 1h 27mn
Bit rate mode : Constant
Bit rate : 1 510 Kbps
Channel(s) : 6 channels
Channel positions : Front: L C R, Side: L R, LFE
Sampling rate : 48.0 KHz
Bit depth : 24 bits
Compression mode : Lossy
Stream size : 949 MiB (17%)
Title : DTS 5.1 @ 1536 kbps
Language : English
Default : No
Forced : No

Text #1
ID : 4
Format : UTF-8
Codec ID : S_TEXT/UTF8
Codec ID/Info : UTF-8 Plain Text
83bdea9eb6cf67e3a846f2db094c49f45e1c5809Проект X: Дорвались / Project X (Нима Нуризаде, комедия, 2012) [BDRip 720p, Дубляж, Оригинал, Sub] Проект X: Дорвались / Project X (Нима Нуризаде, комедия, 2012) [BDRip 720p, Дубляж, Оригинал, Sub] " />

Аплоадер: Админ, дата: 14-06-2012, 21:53, торрент скачан: 359 раз

Понравилась раздача? Посмотрите эти:
  • Проект X: Дорвались / Project X / Extended Cut (Нима Нуризаде, комедия, 201 ...
  • Проект X: Дорвались / Project X [EXTENDED] (Нима Нуризаде, комедия, 2012) [ ...
  • Проект X: Дорвались / Project X [EXTENDED] (Нима Нуризаде, комедия, 2012) [ ...
  • Проект Х: Дорвались/ Progect X(Нима Нуризаде, комедия, 2012) [960 x 640] [D ...
  • Толстяк на ринге / Here Comes the Boom (Фрэнк Корачи, Боевик, комедия, 201 ...
  • Зубная фея 2 / Tooth Fairy 2 (Алекс Замм, комедия, семейный, 2012) [BDRip 7 ...
  • Проект X: Дорвались / Project X (Нима Нуризаде, комедия, 2012) [BDRip-AVC, ...
  • Проект X: Дорвались / Project X (Нима Нуризаде, комедия, 2012) [BDRip - AVC ...
  • Проект X: Дорвались [Театральная версия] / Project X [Theatrical Version] ( ...
  • Проект X: Дорвались [Театральная версия] / Project X [Theatrical Version] ( ...
  • Проект X: Дорвались / Project X (Нима Нуризаде, комедия, 2012) [НDRip - AVC ...
  • Проект X: Дорвались [Расширенная версия] / Project X [Extended Cut] (Нима Н ...
  • Закон доблести / Act of Valor (Майк МакКой, Скотт Во, боевик, триллер, прик ...
  • «Весёлые» каникулы / Get the Gringo (Адриан Грюнберг, Боевик, комедия, 2012 ...
  • Ворон / The Raven (Джеймс МакТиг, Триллер, детектив, 2012) [BDRip 720p, Дуб ...
  • Проект X: Дорвались [Театральная версия] / Project X [Theatrical Cut] (Нима ...
  • Рок на века / Rock of Ages (Адам Шенкман, Мюзикл, драма, мелодрама, комедия ...
  • Супер Майк / Magic Mike (Стивен Содерберг, Драма, комедия, 2012) [BDRip 720 ...
  • Проект X: Дорвались / Project X [EXTENDED] (Нима Нуризаде, комедия, 2012) [ ...
  • Проект X: Дорвались / Project X (Нима Нуризаде, комедия, 2012) [320x176] [H ...
  • Проект X: Дорвались / Project X (Нима Нуризаде, комедия, 2012) [HDRip, Дубл ...
  • Проект X: Дорвались / Project X / Theatrical Cut (Нима Нуризаде, комедия, 2 ...
  • Проект X: Дорвались / Project X [Extended] (Нима Нуризаде, комедия, 2012) [ ...
  • Проект X: Дорвались / Project X (Нима Нуризад, комедия, 2012) [DVD9, Профес ...
  • [iPhone, iPod] Проект Х / Project X (Нима Нуризаде, комедия, 2012) [480х32 ...
  • Информация
    Посетители, находящиеся в группе Гости, не могут оставлять комментарии к данной публикации.