вход на сайт

Имя пользователя :
Пароль :

Восстановление пароля Регистрация
Учитель на замену / Detachment (Тони Кэй, драма, 2011) [BDRip 720р, Профессиональный (многоголосый закадровый), Оригинал, Sub]
Рейтинг:
(голосов: 1)



[img]{THEME}/images/logopost.png[/img]



Учитель на замену / Detachment

Год выпуска: 2011
Страна: США
Производство: Paper Street Films, Kingsgate Films, Appian Way
Жанр: драма

Режиссёр: Тони Кэй
В ролях: Эдриан Броуди, Кристина Хендрикс, Марша Гэй Харден, Джеймс Каан, Люси Лью, Блайт Даннер, Тим Блейк Нельсон, Уильям Л. Питерсен, Брайан Крэнстон, Сами Гэйл

Перевод: Профессиональный (многоголосый закадровый), Оригинал
Субтитры: русские

Описание: У Генри Бартса настоящий талант ладить с учениками. Чтобы избежать каких-либо эмоциональных привязанностей к подопечным, он решил нигде не задерживаться на длительное время. Когда он прибывает на новое место в государственную школу, где учителя абсолютно безразличны к судьбе учеников, то быстро становится образцом для подражания и самым популярным педагогом.

Сэмпл

IMDB: 7.70 (4 256)
КиноПоиск: 8.167 (4 429)

Качество: BDRip 720р
Продолжительность: : 01:37:39 час.

Формат: MKV
Видео кодек: AVC
Аудио кодек: AC3
Видео: 1280x692 (1.850), 23.976 fps, AVC ~9 000 kbps avg, 0.424 bit/pixel
Аудио#1: 48 kHz, AC3 Dolby Digital, 3/2 (L,C,R,l,r) + LFE ch, ~640 kbps
Аудио#2: 48 kHz, AC3 Dolby Digital, 3/2 (L,C,R,l,r) + LFE ch, ~640 kbps

Дата премьеры (мир): 25 апреля 2011
Дата премьеры (РФ): 3 мая 2012, «Премиум Фильм»

MediaInfo ▼General
Unique ID : 194861303311136326667233799445799097821 (0x9298EC01F60B110CBCB9EAA934D5D5DD)
Complete name : Uchitel.na.zamenu.2011.x264.BDRip.(720p).mkv
Format : Matroska
Format version : Version 2
File size : 7.01 GiB
Duration : 1h 37mn
Overall bit rate : 10.3 Mbps
Movie name : Uchitel.na.zamenu.2011.x264.BDRip.(720p).mkv
Encoded date : UTC 2012-06-08 09:10:38
Writing application : mkvmerge v5.6.0 (Kenya Kane) built on May 27 2012 16:44:04
Writing library : libebml v1.2.3 + libmatroska v1.3.0

Video
ID : 1
Format : AVC
Format/Info : Advanced Video Codec
Format profile : [email protected]
Format settings, CABAC : Yes
Format settings, ReFrames : 9 frames
Codec ID : V_MPEG4/ISO/AVC
Duration : 1h 37mn
Bit rate : 9 000 Kbps
Width : 1 280 pixels
Height : 692 pixels
Display aspect ratio : 1.850
Frame rate : 23.976 fps
Color space : YUV
Chroma subsampling : 4:2:0
Bit depth : 8 bits
Scan type : Progressive
Bits/(Pixel*Frame) : 0.424
Stream size : 6.00 GiB (86%)
Title : Uchitel.na.zamenu.2011.x264.BDRip.(720p).mkv
Writing library : x264 core 125 r2200 999b753
Encoding settings : cabac=1 / ref=9 / deblock=1:-3:-3 / analyse=0x3:0x113 / me=umh / subme=10 / psy=1 / psy_rd=1.00:0.00 / mixed_ref=1 / me_range=32 / chroma_me=1 / trellis=2 / 8x8dct=1 / cqm=0 / deadzone=21,11 / fast_pskip=0 / chroma_qp_offset=-2 / threads=12 / lookahead_threads=2 / sliced_threads=0 / nr=0 / decimate=0 / interlaced=0 / bluray_compat=0 / constrained_intra=0 / bframes=12 / b_pyramid=2 / b_adapt=2 / b_bias=0 / direct=3 / weightb=1 / open_gop=0 / weightp=2 / keyint=240 / keyint_min=24 / scenecut=40 / intra_refresh=0 / rc_lookahead=40 / rc=2pass / mbtree=0 / bitrate=9000 / ratetol=1.0 / qcomp=0.60 / qpmin=0 / qpmax=69 / qpstep=4 / cplxblur=20.0 / qblur=0.5 / vbv_maxrate=50000 / vbv_bufsize=50000 / nal_hrd=none / ip_ratio=1.40 / pb_ratio=1.30 / aq=1:1.00
Language : English
Default : Yes
Forced : No
Color primaries : BT.709-5, BT.1361, IEC 61966-2-4, SMPTE RP177
Transfer characteristics : BT.709-5, BT.1361
Matrix coefficients : BT.709-5, BT.1361, IEC 61966-2-4 709, SMPTE RP177

Audio #1
ID : 2
Format : AC-3
Format/Info : Audio Coding 3
Mode extension : CM (complete main)
Codec ID : A_AC3
Duration : 1h 37mn
Bit rate mode : Constant
Bit rate : 640 Kbps
Channel(s) : 6 channels
Channel positions : Front: L C R, Side: L R, LFE
Sampling rate : 48.0 KHz
Bit depth : 16 bits
Compression mode : Lossy
Stream size : 447 MiB (6%)
Title : MVO {RUS BD} [AC3 [email protected]]
Language : Russian
Default : Yes
Forced : No

Audio #2
ID : 3
Format : AC-3
Format/Info : Audio Coding 3
Mode extension : CM (complete main)
Codec ID : A_AC3
Duration : 1h 37mn
Bit rate mode : Constant
Bit rate :
62030d43b92bd8bdfd6a3528f0f7e09b7fafa0d9Учитель на замену / Detachment (Тони Кэй, драма, 2011) [BDRip 720р, Профессиональный (многоголосый закадровый), Оригинал, Sub] Учитель на замену / Detachment (Тони Кэй, драма, 2011) [BDRip 720р, Профессиональный (многоголосый закадровый), Оригинал, Sub] " />

Аплоадер: Админ, дата: 9-06-2012, 23:46, торрент скачан: 359 раз

Понравилась раздача? Посмотрите эти:
  • Конец света / Fin (Хорхе Торрегросса, триллер, 2012) [BDRip-AVC, Профессион ...
  • Аноним / Anonymous (Роланд Эммерих, триллер, драма, 2011) [BDRip-AVC, Профе ...
  • Мартовские иды / The Ides of March (Джордж Клуни / George Clooney, драма, 2 ...
  • Учитель на замену / Detachment (Тони Кэй, драма, 2011) [BDRip-AVC, Професси ...
  • Учитель на замену / Detachment (Тони Кэй, драма, 2011) [HDRip-AVC, Професси ...
  • Учитель на замену / Detachment (Тони Кэй, драма, 2011) [BDRip-AVC, Професси ...
  • Проект X: Дорвались / Project X (Нима Нуризаде, комедия, 2012) [BDRip-AVC, ...
  • Соломенные псы / Straw Dogs (Род Лури, Драма, Триллер, Криминал, 2011) [BDR ...
  • Любовь живет три года / Lamour dure trois ans (Фредерик Бегбедер / Frederic ...
  • Откровения / Elles (Малгожата Шумовска, Драма, 2011) [BDRip 720p, Профессио ...
  • Судный день / The Day (Дуглас Арниокоски, Фантастика, триллер, драма, 2011) ...
  • Возлюбленные / Les bien-aimés (Кристоф Оноре, Драма, 2011) [BDRip 720p, Дуб ...
  • [EN] Учитель на замену / Detachment (Тони Кэй, драма, 2011) [DVDRip, отсутс ...
  • [EN] Учитель на замену / Detachment (Тони Кэй, драма, 2011) [HDTVRip, Ориги ...
  • Учитель на замену / Detachment (Тони Кэй, драма, 2011) [Blu-ray Disc [RUS], ...
  • Учитель на замену / Detachment (Тони Кэй, драма, 2011) [BDRip, Профессионал ...
  • Учитель на замену / Detachment (Тони Кэй, драма, 2011) [HDRip, Профессионал ...
  • Учитель на замену / Detachment (Тони Кэй, драма, 2011) [BDRip, Профессионал ...
  • [iPhone, iPod]Учитель на замену / Detachment (Тони Кэй, драма, 2011) [480x3 ...
  • Учитель на замену / Detachment (Тони Кэй, Драма, 2011) [BDRip, Профессионал ...
  • Информация
    Посетители, находящиеся в группе Гости, не могут оставлять комментарии к данной публикации.