вход на сайт

Имя пользователя :
Пароль :

Восстановление пароля Регистрация
Между / Twixt (Френсис Форд Коппола, ужасы, фэнтези, триллер, 2011) [BDRip 720p, Дублированный + Sub]
Рейтинг:
(голосов: 1)



[img]{THEME}/images/logopost.png[/img]



Между / Twixt
«Он отведёт тебя в мир духов и вампиров»

Год выпуска: 2011
Страна: США
Производство: American Zoetrope
Жанр: ужасы, фэнтези, триллер

Режиссёр: Френсис Форд Коппола
В ролях: Вэл Килмер, Брюс Дерн, Эль Фаннинг, Бен Чаплин, Энтони Фуско, Олден Эйренрайк, Дэвид Пэймер, Джоэнн Уэлли, Дон Новелло, Райан Симпкинс

Перевод: Дублированный
Субтитры: русские

Описание: Потерявший вдохновение писатель приезжает в захолустный городок, где пытается разгадать серию загадочных убийств. Во сне ему с завидным упорством является призрак окровавленной девочки Ви, которая пытается сообщить ему страшную тайну. Возможно, распутав цепь странных событий, писатель сможет, наконец, преодолеть кризис и создать новую книгу — о вампирах, потустороннем мире и легендарном Эдгаре Аллане По.Дата премьеры (мир): 11 сентября 2011
Дата премьеры (РФ): 26 апреля 2012, «Каравелла DDC»
Качество: BDRip 720p
Продолжительность: 01:28:07

Формат: MKV
Видео кодек: AVC
Аудио кодек: DTS
Видео: 1 280x662 (1.934), 23.976 fps, AVC ~4 818 Kbps, 0.237 bit/pixel
Аудио: 48.0 KHz, DTS, 6 channels (Front: L C R, Side: L R, LFE), 1510.00 kbps avg | DUB

MediaInfo ▼Complete name : IRONCLUBMejhdu.2011.D.BDRip.720p.IRONCLUB.mkv
Format : Matroska
Format version : Version 2
File size : 3.97 GiB
Duration : 1h 28mn
Overall bit rate : 6 456 Kbps
Movie name : Mezhdu 2011 720p BluRay DTS x264-IRONCLUB
Encoded date : UTC 2012-05-30 05:18:07
Writing application : mkvmerge v4.9.1 (Ich will) built on Jul 11 2011 23:53:15
Writing library : libebml v1.2.1 + libmatroska v1.1.1

Video
ID : 1
Format : AVC
Format/Info : Advanced Video Codec
Format profile : [email protected]
Format settings, CABAC : Yes
Format settings, ReFrames : 9 frames
Codec ID : V_MPEG4/ISO/AVC
Duration : 1h 28mn
Bit rate : 4 818 Kbps
Width : 1 280 pixels
Height : 662 pixels
Display aspect ratio : 1.934
Frame rate : 23.976 fps
Color space : YUV
Chroma subsampling : 4:2:0
Bit depth : 8 bits
Scan type : Progressive
Bits/(Pixel*Frame) : 0.237
Stream size : 2.97 GiB (75%)
Title : Mezhdu 2011 720p BluRay DTS x264-IRONCLUB
Writing library : x264 core 120 r2164 da19765
Encoding settings : cabac=1 / ref=9 / deblock=1:-3:-3 / analyse=0x3:0x113 / me=umh / subme=10 / psy=1 / psy_rd=1.05:0.05 / mixed_ref=1 / me_range=32 / chroma_me=1 / trellis=2 / 8x8dct=1 / cqm=0 / deadzone=21,11 / fast_pskip=0 / chroma_qp_offset=-2 / threads=12 / sliced_threads=0 / nr=0 / decimate=1 / interlaced=0 / bluray_compat=0 / constrained_intra=0 / bframes=8 / b_pyramid=2 / b_adapt=2 / b_bias=0 / direct=3 / weightb=1 / open_gop=0 / weightp=2 / keyint=249 / keyint_min=23 / scenecut=40 / intra_refresh=0 / rc_lookahead=40 / rc=crf / mbtree=1 / crf=17.0 / qcomp=0.60 / qpmin=10 / qpmax=69 / qpstep=4 / vbv_maxrate=50000 / vbv_bufsize=62500 / crf_max=0.0 / nal_hrd=none / ip_ratio=1.40 / aq=1:1.00
Language : English
Default : Yes
Forced : Yes
Matrix coefficients : BT.709-5, BT.1361, IEC 61966-2-4 709, SMPTE RP177

Audio
ID : 2
Format : DTS
Format/Info : Digital Theater Systems
Codec ID : A_DTS
Duration : 1h 28mn
Bit rate mode : Constant
Bit rate : 1 510 Kbps
Channel(s) : 6 channels
Channel positions : Front: L C R, Side: L R, LFE
Sampling rate : 48.0 KHz
Bit depth : 24 bits
Compression mode : Lossy
Stream size : 952 MiB (23%)
Title : DTS 5.1 @ 1536 kbps
Language : Russian
Default : Yes
Forced : Yes

Text
ID : 3
Format : UTF-8
Codec ID : S_TEXT/UTF8
Codec ID/Info : UTF-8 Plain Text
Language : Russian
Default : No
Forced : No

Menu
00:00:00.000 : :00:00:00.000
00:04:37.485 : :00:04:37.485
00:09:15.805 : :00:09:15.805
00:13:53.833 : :00:13:53.833
00:18:32.152 : :00:18:32.152
00:23:10.764 : :00:23:10.764
00:27:49.209 : :00:27:49.209
00:32:27.070 : :00:32:27.070
00:37:04.805 : :00:37:04.805
00:41:43.209 : :00:41:43.209
00:46:21.528 : :00:46:21.528
00:50:59.639 : :00:50:59.639
00:55:38.084 : :00:55:38.084
01:00:
2193790118ffc2aaf43287a2d834a9515a699133Между / Twixt (Френсис Форд Коппола, ужасы, фэнтези, триллер, 2011) [BDRip 720p, Дублированный + Sub] Между / Twixt (Френсис Форд Коппола, ужасы, фэнтези, триллер, 2011) [BDRip 720p, Дублированный + Sub] " />

Аплоадер: Админ, дата: 30-05-2012, 15:31, торрент скачан: 359 раз

Понравилась раздача? Посмотрите эти:
  • Военные Игры / War Games: At The End Of The Day ( Козимо Алема, триллер, у ...
  • Между / Twixt (Френсис Форд Коппола, ужасы, фэнтези, триллер, 2011) [HDRip- ...
  • Апокалипсис сегодня / Apocalypse Now (Френсис Форд Коппола / Francis Ford C ...
  • Красная шапочка / Red Riding Hood (Кэтрин Хардвик, ужасы, фэнтези, триллер, ...
  • 11-11-11 / 11-11-11 (Даррен Линн Боусман, ужасы, триллер, 2011) [BDRip 720p ...
  • Экстрасенс / The Awakening (Ник Мерфи, ужасы, триллер, 2011) [BDRip 720p, Д ...
  • Белый тигр (Карен Шахназаров, военный, 2012) [BDRip 720p, Не требуется]
  • Закон доблести / Act of Valor (Майк МакКой, Скотт Во, боевик, триллер, прик ...
  • Джок / Jock (Дункан МакНили, мультфильм, комедия, приключения, семейный, 20 ...
  • Немножко женаты / The Five-Year Engagement (Николас Столлер, Мелодрама, ком ...
  • Семь футов / Seven Below (Кевин Каррауэй, Ужасы, триллер, 2012) [BDRip 720p ...
  • Медальон / Stolen (Саймон Уэст, Боевик, триллер, 2012) [BDRip 720p, Дубляж, ...
  • ЗЛО / V/H/S (Мэттью Беттинелли, Адам Вингард, Дэвид Брукнер, ужасы, 2012) [ ...
  • Президент Линкольн: Охотник на вампиров / Abraham Lincoln: Vampire Hunter ( ...
  • Судный день / The Day (Дуглас Арниокоски, Фантастика, триллер, драма, 2011) ...
  • Цунами 3D / Bait (Кимбл Рендалл, Ужасы, боевик, триллер, 2011) [BDRip 720p ...
  • Третий лишний / Ted (Сет МакФарлейн, Фэнтези, комедия, 2012) [BDRip 720p, Д ...
  • Явление / The Apparition (Тодд Линкольн, Ужасы, триллер, 2012) [BDRip 720p, ...
  • Коллекционер 2 / The Collection (Маркус Данстэн, ужасы, боевик, триллер, 20 ...
  • Коллекционер 2 / The Collection (Маркус Данстэн, ужасы, боевик, триллер, 20 ...
  • Между / Twixt (Френсис Форд Коппола, ужасы, фэнтези, триллер, 2011) [DVD5, ...
  • Между / Twixt (Френсис Форд Коппола, ужасы, фэнтези, триллер, 2011) [HDRip, ...
  • Между / Twixt (Френсис Форд Коппола, ужасы, фэнтези, триллер, 2011) [320x16 ...
  • Между / Twixt (Френсис Форд Коппола, ужасы, фэнтези, триллер, 2011) [HDRip, ...
  • [3D] Между / Twixt (Френсис Форд Коппола, ужасы, фэнтези, триллер, 2011) [B ...
  • Информация
    Посетители, находящиеся в группе Гости, не могут оставлять комментарии к данной публикации.