вход на сайт

Имя пользователя :
Пароль :

Восстановление пароля Регистрация
Охотник / The Hunter (Дэниэл Неттхейм, драма, приключения, 2011) [BDRip 1080p, Профессиональный (многоголосый, закадровый) + Оригинал + Sub]
Рейтинг:
(голосов: 1)



[img]{THEME}/images/logopost.png[/img]



Охотник / The Hunter

Год выпуска: 2011
Страна: Австралия
Производство: Porchlight Films, Screen Australia, Screen NSW
Жанр: драма, приключения

Режиссёр: Дэниэл Неттхейм
В ролях: Уиллем Дефо, Сэм Нил, Фрэнсис О’Коннор, Салливан Степлтон, Моргана Дейвис, Каллэн Мулвей, Яцек Коман, Дэниэл Уилли, Джон Брамптон, Джэйми Тимони

Перевод: Профессиональный (многоголосый, закадровый) + Оригинал
Субтитры: Русские, английские

Описание: В поисках легкого заработка по контракту с загадочной биотехнологической компанией он отправляется в дикие земли Тасмании. Его задача - отыскать и убить последнего Австралийского Тигра, который уже несколько лет считается полностью истребленным. Прибыв на место, Мартин селится у Люси - странной и одинокой красивой женщины, которая скорбит по мужу, исчезнувшему в тасманской глуши при крайне загадочных обстоятельствах.

Сэмпл

IMDB: 6.70 (6 189)
КиноПоиск: 6.696 (781)

Релиз от:

Качество: BDRip 1080p
Продолжительность: 01:44:14 час.

Формат: MKV
Видео кодек: AVC
Аудио кодек: AC3
Видео: 1920x816 (2.35:1), 24 fps, AVC ~13,1 Мбит/сек, 0.348 bit/pixe
Аудио 1: 48 kHz, AC3 Dolby Digital, 3/2 (L,C,R,l,r) + LFE ch, ~448 kbps avg
Аудио 2: 48 kHz, AC3 Dolby Digital, 3/2 (L,C,R,l,r) + LFE ch, ~448 kbps avg

Дата премьеры (мир): 9 сентября 2011
Дата премьеры (РФ): 10 мая 2012, «Другое кино»

"MediaInfo" ▼Полное имя : The.Hunter.2011.P.BDRip.1080p.IRONCLUB.mkv
Формат : Matroska
Версия формата : Version 2
Размер файла : 10,2 Гбайт
Продолжительность : 1 ч. 44 м.
Общий поток : 14,0 Мбит/сек
Название фильма : Охотник / The Hunter (2011) .......:::IRONCLUB:::....... [JTR]
Дата кодирования : UTC 2012-05-22 21:23:51
Программа кодирования : mkvmerge v5.5.0 (Healer) built on Apr 6 2012 21:43:24
Библиотека кодирования : libebml v1.2.3 + libmatroska v1.3.0

Видео
Идентификатор : 1
Формат : AVC
Формат/Информация : Advanced Video Codec
Профиль формата : [email protected]
Параметр CABAC формата : Да
Параметр ReFrames формата : 5 кадров
Идентификатор кодека : V_MPEG4/ISO/AVC
Продолжительность : 1 ч. 44 м.
Битрейт : 13,1 Мбит/сек
Ширина : 1920 пикселей
Высота : 816 пикселей
Соотношение сторон : 2,35:1
Частота кадров : 24,000 кадра/сек
Цветовое пространство : YUV
Субдискретизация насыщенности : 4:2:0
Битовая глубина : 8 бит
Тип развёртки : Прогрессивная
Бит/(Пиксели*Кадры) : 0.348
Размер потока : 9,31 Гбайт (92%)
Заголовок : The.Hunter.2011.1080p.BluRay.x264.AC3-HDChina
Библиотека кодирования : x264 core 120 r2146 bcd41db
Настройки программы : cabac=1 / ref=5 / deblock=1:-3:-3 / analyse=0x3:0x133 / me=umh / subme=10 / psy=1 / psy_rd=1.00:0.00 / mixed_ref=1 / me_range=48 / chroma_me=1 / trellis=2 / 8x8dct=1 / cqm=0 / deadzone=21,11 / fast_pskip=1 / chroma_qp_offset=-2 / threads=12 / sliced_threads=0 / nr=0 / decimate=0 / interlaced=0 / bluray_compat=0 / constrained_intra=0 / bframes=6 / b_pyramid=2 / b_adapt=2 / b_bias=0 / direct=3 / weightb=1 / open_gop=0 / weightp=2 / keyint=250 / keyint_min=24 / scenecut=40 / intra_refresh=0 / rc_lookahead=60 / rc=2pass / mbtree=1 / bitrate=13081 / ratetol=1.0 / qcomp=0.60 / qpmin=0 / qpmax=69 / qpstep=4 / cplxblur=20.0 / qblur=0.5 / vbv_maxrate=50000 / vbv_bufsize=50000 / nal_hrd=none / ip_ratio=1.50 / aq=1:1.00
Язык : English
Default : Да
Forced : Да

Аудио #1
Идентификатор : 2
Формат : AC-3
Формат/Информация : Audio Coding 3
Расширение режима : CM (complete main)
Параметр Endianness формата : Big
Идентификатор кодека : A_AC3
Продолжительность : 1 ч. 44 м.
Вид битрейта : Постоянный
Битрейт : 448 Кбит/сек
Каналы : 6 каналов
Расположение каналов : Front: L C R, Side: L R, LFE
Частота : 48,0 КГц
Битовая глубина : 16 бит
Метод сжатия : С потерями
Размер потока : 334 Мбайт (3%)
Заголовок : AC3 5.1 @ 448 kb/s [Russian MVO, R5]
Язык : Russian
Default : Да
Forced : Да

Аудио #2
Идентификатор : 3
Формат : AC-3
Формат/Информация : Audio Coding 3
Расши
594b821c17869b4a73c5485177f09e729a7fee98Охотник / The Hunter (Дэниэл Неттхейм, драма, приключения, 2011) [BDRip 1080p, Профессиональный (многоголосый, закадровый) + Оригинал + Sub] Охотник / The Hunter (Дэниэл Неттхейм, драма, приключения, 2011) [BDRip 1080p, Профессиональный (многоголосый, закадровый) + Оригинал + Sub] " />

Аплоадер: Админ, дата: 24-05-2012, 00:26, торрент скачан: 359 раз

Понравилась раздача? Посмотрите эти:
  • Византия / Byzantium (Нил Джордан, Фэнтези, триллер, драма, 2012) [BDRip 10 ...
  • Охотник / The Hunter (Дэниел Неттхейм, Драма, приключения, 2011) [BDRip, Пр ...
  • Летучий отряд Скотланд-Ярда / The Sweeney (Ник Лав, Боевик, драма, криминал ...
  • Порочные игры / Stoker (Пак Чхан Ук, Триллер, драма, детектив, 2013) [BDRip ...
  • Порочные игры / Stoker (Пак Чхан Ук, Триллер, драма, детектив, 2013) [BDRip ...
  • Охотник / The Hunter (Дэниэл Неттхейм, драма, приключения, 2011) [480x208] ...
  • [3D] Президент Линкольн: Охотник на вампиров / Abraham Lincoln: Vampire Hun ...
  • Суррогат / The Sessions (Бен Луин, Драма, 2012) [BDRip-AVC, Профессиональны ...
  • Последний неандерталец / Ao, le dernier Néandertal (Жак Малатье, приключени ...
  • Охотник / The Hunter (Daniel Nettheim, Драма, 2011) [HDRip-AVC, Профессиона ...
  • Охотник / The Hunter (Дэниел Неттхейм, драма, приключения, 2011) [HDRip-AVC ...
  • Охотник / The Hunter (Дэниэл Неттхейм, Драма, 2011) [BDRip-AVC, Профессиона ...
  • Эд Вуд / Ed Wood (Тим Бёртон, драма, комедия, биография, 1994) [BDRip-AVC, ...
  • Охотник / The Hunter (Daniel Nettheim, Драма, 2011) [BDRip 720p, Авторский ...
  • Стыд / Shame (Стив МакКуин, драма, 2011) [BDRip 1080p, полное дублирование, ...
  • Резня /Carnage (Роман Полански, драма, комедия, 2011) [BDRip 1080p, Дублиро ...
  • Охотник / The Hunter (Daniel Nettheim, Драма, 2011) [BDRip 720p, Профессион ...
  • Черное золото / Black Gold (Жан-Жак Анно, драма, 2011) [BDRip 1080p, Профес ...
  • Павшая империя / Hirokin (Алехо Мо-Сан, фантастика, боевик, драма, приключе ...
  • Охотник / The Hunter (Daniel Nettheim, Драма, 2011) [HDRip, Авторский (одно ...
  • Охотник / The Hunter (Daniel Nettheim, Драма, 2011) [HDRip, Авторский (одно ...
  • Охотник / The Hunter (Daniel Nettheim, Драма, 2011) [HDRip, Авторский (одно ...
  • Охотник / The Hunter (Дэниэл Неттхейм, драма, приключения, 2011) [HDRip, Пр ...
  • Охотник / The Hunter (Дэниэл Неттхейм, драма, приключения, 2011) [HDRip, Пр ...
  • Охотник / The Hunter (Дэниел Неттхейм, драма, приключения, 2011) [HDRip, Пр ...
  • Информация
    Посетители, находящиеся в группе Гости, не могут оставлять комментарии к данной публикации.