вход на сайт

Имя пользователя :
Пароль :

Восстановление пароля Регистрация
Бессонная ночь / Nuit blanche (Фредерик Жарден, Боевик, 2011) [BDRip 720p, Профессиональный (многоголосый закадровый) + Оригинал]
Рейтинг:
(голосов: 1)



[img]{THEME}/images/logopost.png[/img]



Бессонная ночь / Nuit blanche

Год выпуска: 2011
Страна: Франция Бельгия Люксембург
Производство: uFilm
Жанр: боевик, триллер

Режиссёр: Фредерик Жарден
В ролях: Томер Сислей, Джои Старр, Жюльен Буасселье, Серж Рябукин, Лорен Стокер, Сами Сегир, Доминик Беттенфельд, Адель Беншериф, Бироль Унел, Лиззи Брошер

Перевод: Профессиональный (многоголосый закадровый) + Оригинал French
Субтитры: Отсутствуют

Описание: Винсент — коп, который в ходе операции крадет у бандитов мешок кокаина. Гангстеры решают похитить сына Винсента, чтобы вернуть кокаин. Но к этому моменту герой уже не имеет при себе наркотики. Чтобы спасти своего сына, он должен отложить столько, сколько может, время обмена. Предстоящая ночь, кажется, самая длинная в его жизни и, возможно, даже последняя…



Качество: BDRip 720p (CHD) | Сэмпл
Продолжительность: 01:42:35 час.

Формат: MKV
Видео кодек: AVC
Аудио кодек: АС3, DTS
Видео: 1280x690 (1,855), 23,976 fps, AVC ~5320 kbps, 0.251 bit/pix
Аудио: 48 kHz, АС3, 2 ch, ~192.00 kbps avg | Russian (MVO)
Аудио: 48 kHz, DTS, 6 ch, ~755.00 kbps avg | English

Премьера (мир): 16 ноября 2011
Премьера (РФ): 2 февраля 2012, «Люксор»
MediaInfo ▼ФИЛЬМЫБЕССОННАЯ НОЧЬ (MVO).2011.BluRay.720p.DTS.x264-lord_i_74.mkv
Формат : Matroska
Версия формата : Version 2
Размер файла : 4,49 Гбайт
Продолжительность : 1 ч. 42 м.
Общий поток : 6272 Кбит/сек
Дата кодирования : UTC 2012-05-18 13:35:42
Программа кодирования : mkvmerge v5.0.1 (Es ist Sommer) built on Oct 9 2011 11:55:43
Библиотека кодирования : libebml v1.2.2 + libmatroska v1.3.0
Видео
Идентификатор : 1
Формат : AVC
Формат/Информация : Advanced Video Codec
Профиль формата : [email protected]
Параметр CABAC формата : Да
Параметр ReFrames формата : 9 кадров
Идентификатор кодека : V_MPEG4/ISO/AVC
Продолжительность : 1 ч. 42 м.
Битрейт : 5320 Кбит/сек
Ширина : 1280 пикс.
Высота : 690 пикс.
Соотношение сторон : 1,855
Частота кадров : 23,976 кадр/сек
Цветовое пространство : YUV
Подвыборка цветности : 4:2:0
Битовая глубина : 8 бит
Тип развёртки : Прогрессивная
Бит/(Пиксели*Кадры) : 0.251
Размер потока : 3,73 Гбайт (83%)
Заголовок : [email protected]
Библиотека кодирования : x264 core 120 r2164 da19765
Настройки программы : cabac=1 / ref=9 / deblock=1:-3:-3 / analyse=0x3:0x113 / me=umh / subme=10 / psy=1 / psy_rd=1.10:0.10 / mixed_ref=1 / me_range=32 / chroma_me=1 / trellis=2 / 8x8dct=1 / cqm=0 / deadzone=21,11 / fast_pskip=0 / chroma_qp_offset=-2 / threads=12 / sliced_threads=0 / nr=0 / decimate=1 / interlaced=0 / bluray_compat=0 / constrained_intra=0 / bframes=6 / b_pyramid=2 / b_adapt=2 / b_bias=0 / direct=3 / weightb=1 / open_gop=0 / weightp=2 / keyint=250 / keyint_min=23 / scenecut=40 / intra_refresh=0 / rc_lookahead=60 / rc=2pass / mbtree=0 / bitrate=5320 / ratetol=1.0 / qcomp=0.60 / qpmin=0 / qpmax=69 / qpstep=4 / cplxblur=20.0 / qblur=0.5 / vbv_maxrate=40000 / vbv_bufsize=40000 / nal_hrd=none / ip_ratio=1.40 / pb_ratio=1.30 / aq=1:0.90
Язык : French
Аудио #1
Идентификатор : 2
Формат : AC-3
Формат/Информация : Audio Coding 3
Расширение режима : CM (complete main)
Идентификатор кодека : A_AC3
Продолжительность : 1 ч. 42 м.
Вид битрейта : Постоянный
Битрейт : 192 Кбит/сек
Каналы : 2 канала
Расположение каналов : Front: L R
Частота : 48,0 КГц
Битовая глубина : 16 бит
Метод сжатия : С потерями
Размер потока : 141 Мбайт (3%)
Заголовок : MVO
Язык : Russian
Аудио #2
Идентификатор : 3
Формат : DTS
Формат/Информация : Digital Theater Systems
Идентификатор кодека : A_DTS
Продолжительность : 1 ч. 42 м.
Вид битрейта : Постоянный
Битрейт : 755 Кбит/сек
Каналы : 6 каналов
Расположение каналов : Front: L C R, Side: L R, LFE
Частота : 48,0 КГц
Битовая глубина : 16 бит
Метод сжатия : С потерями
Размер потока : 554 Мбайт (12%)
Заголовок : French DTS 5.1 768Kbps
Язык : French





a3169865cb9d943bb6237dde2aefa6dddeffb319Бессонная ночь / Nuit blanche (Фредерик Жарден, Боевик, 2011) [BDRip 720p, Профессиональный (многоголосый закадровый) + Оригинал] Бессонная ночь / Nuit blanche (Фредерик Жарден, Боевик, 2011) [BDRip 720p, Профессиональный (многоголосый закадровый) + Оригинал] " />

Аплоадер: Админ, дата: 19-05-2012, 01:19, торрент скачан: 359 раз

Понравилась раздача? Посмотрите эти:
  • Мэрайа Мунди и шкатулка Мидаса / The Adventurer: The Curse of the Midas Box ...
  • Ночь страха 2: Свежая кровь / Fright Night 2: New Blood (Эдуардо Родригез, ...
  • Ночь страха 2: Свежая кровь / Fright Night 2: New Blood (Эдуардо Родригез, ...
  • Погнали! / Getaway (Кортни Соломон, боевик, криминал, 2013) [BDRip 1080p, П ...
  • Погнали! / Getaway (Кортни Соломон, боевик, криминал, 2013) [BDRip-AVC, Про ...
  • Больше чем мёд / More Than Honey (документальный, 2012) [BDRip 720p, Профес ...
  • Летучий отряд Скотланд-Ярда / The Sweeney (Ник Лав, Боевик, драма, криминал ...
  • Суррогат / The Sessions (Бен Луин, Драма, 2012) [BDRip-AVC, Профессиональны ...
  • Бессонная ночь / Nuit blanche (Фредерик Жарден, боевик, триллер, 2011) [BDR ...
  • Ошибка телохранителя / The Girl from the Naked Eye (Дэвид Рен, боевик, трил ...
  • Секса много не бывает / Un heureux evenement (Реми Безансон, драма, комедия ...
  • Иностранный легион / La cité (Ким Нгуйен / Kim Nguyen, драма, 2010) [DVDRip ...
  • Профессионал / Killer Elite (Гэри МакКендри, боевик, 2011) [BDRip-AVC, Проф ...
  • Образец 47 / Marvel One-Shot: Item 47 (Луис Д’Эспозито, короткометражка, фа ...
  • Ренессанс / Renaissance (Кристиан Волькман / мультфильм, фантастика, боевик ...
  • Немыслимое / Unthinkable (Грегор Джордан, триллер, драма, 2009) [BDRip 720p ...
  • Жестокие игры / Cruel Intentions (Роджер Камбл, мелодрама, драма, 1999) [BD ...
  • Переростки / The Inbetweeners (Бен Палмер / Ben Palmer, комедия, 2011) [BDR ...
  • Бедная богатая девочка / Young Adult (Джейсон Райтман, драма, комедия, 2011 ...
  • Бульвар спасения / Salvation Boulevard (Джордж Рэтлифф, Боевик, триллер, др ...
  • Павшая империя / Hirokin (Алехо Мо-Сан, фантастика, боевик, драма, приключе ...
  • Харакири 3D / Ichimei (Такаси Миике, Драма, 2011) [BDRip 720p, Профессионал ...
  • Ворон / The Crow (Алекс Пройас, фэнтези, боевик, триллер, 1994) [BDRip 720p ...
  • Бессонная ночь / Nuit blanche (Фредерик Жарден,боевик, триллер, 2011) [HDRi ...
  • Бессонная ночь / Nuit blanche (Фредерик Жарден, Боевик, Триллер, 2011) [HDR ...
  • Информация
    Посетители, находящиеся в группе Гости, не могут оставлять комментарии к данной публикации.