вход на сайт

Имя пользователя :
Пароль :

Восстановление пароля Регистрация
Игра на выживание / Gone (Эйтор Далия, триллер, драма, 2012) [BDRip 1080p, Дублированный + Оригинал + Sub] [US Transfer]
Рейтинг:
(голосов: 1)



[img]{THEME}/images/logopost.png[/img]



Игра на выживание / Gone
«Никто ей не верит. Ничто её не остановит.»

Год выпуска: 2012
Страна: США
Производство: Lakeshore Entertainment, Sidney Kimmel Entertainment
Жанр: триллер, драма

Режиссёр: Эйтор Далия
В ролях: Аманда Сайфред, Дэниел Сунджата, Дженнифер Карпентер, Себастиан Стэн, Уэс Бентли, Ник Сирси, Сократис Отто, Эмили Уикершем, Джоэль Мур, Кэтрин Менниг

Перевод: Дублированный + Оригинал
Субтитры: английские (SDH)

Описание: Джилл однажды приходит домой и не находит сестру. Джилл уверена, что серийный убийца, который похищал ее пару лет назад, вернулся, чтобы довести начатое до логического завершения. А начнет он с ее сестры. Полиция не воспринимает ее всерьез, говоря, что девушка объявится, когда нагуляется. Единственный выход — вступить в схватку с маньяком и разобраться с этим раз и навсегда.



Качество: BDRip 1080p [CHD] => Сэмпл
Продолжительность: 01:34:52 час.

Формат: MKV
Видео кодек: AVC
Аудио кодек: DTS
Видео: 1920X800 (2.40:1), 23.976 fps, AVC ~10400 Kbps, 0.283 bit/pix
Аудио: 48 kHz, DTS, 3/2 (L,C,R,l,r) + LFE ch, ~1510.00 kbps avg | Russian (DUB)
Аудио: 48 kHz, DTS, 3/2 (L,C,R,l,r) + LFE ch, ~1510.00 kbps avg | English

Премьера (мир): 21 февраля 2012
Премьера (РФ): 23 февраля 2012, «UPI»
MediaInfo ▼General
Unique ID : 198990743181564597445996279919641152233 (0x95B4391CBFBCD1A08463148B9304CAE9)
Complete name : D:Gone.2012.BluRay.1080p.DTS.x264-CHD .mkv
Format : Matroska
Format version : Version 2
File size : 8.92 GiB
Duration : 1h 34mn
Overall bit rate : 13.5 Mbps
Movie name : -Talian-
Encoded date : UTC 2012-05-12 20:15:58
Writing application : mkvmerge v5.3.0 (I could have danced) built on Feb 9 2012 10:38:07
Writing library : libebml v1.2.3 + libmatroska v1.3.0
Video
ID : 1
Format : AVC
Format/Info : Advanced Video Codec
Format profile : [email protected]
Format settings, CABAC : Yes
Format settings, ReFrames : 5 frames
Codec ID : V_MPEG4/ISO/AVC
Duration : 1h 34mn
Bit rate : 10.4 Mbps
Width : 1 920 pixels
Height : 800 pixels
Display aspect ratio : 2.40:1
Frame rate : 23.976 fps
Color space : YUV
Chroma subsampling : 4:2:0
Bit depth : 8 bits
Scan type : Progressive
Bits/(Pixel*Frame) : 0.283
Stream size : 6.74 GiB (76%)
Title : Gone.2012.BluRay.1080p.DTS.x264-CHD
Writing library : x264 core 120 r2146 bcd41db
Encoding settings : cabac=1 / ref=5 / deblock=1:-3:-3 / analyse=0x3:0x113 / me=umh / subme=10 / psy=1 / psy_rd=1.00:0.05 / mixed_ref=1 / me_range=32 / chroma_me=1 / trellis=2 / 8x8dct=1 / cqm=0 / deadzone=21,11 / fast_pskip=0 / chroma_qp_offset=-2 / threads=8 / sliced_threads=0 / nr=0 / decimate=1 / interlaced=0 / bluray_compat=0 / constrained_intra=0 / bframes=6 / b_pyramid=2 / b_adapt=2 / b_bias=0 / direct=3 / weightb=1 / open_gop=0 / weightp=2 / keyint=250 / keyint_min=23 / scenecut=40 / intra_refresh=0 / rc=2pass / mbtree=0 / bitrate=10439 / ratetol=1.0 / qcomp=0.70 / qpmin=0 / qpmax=69 / qpstep=4 / cplxblur=20.0 / qblur=0.5 / ip_ratio=1.40 / pb_ratio=1.30 / aq=2:0.90
Language : English
Default : No
Forced : No
Audio #1
ID : 2
Format : DTS
Format/Info : Digital Theater Systems
Codec ID : A_DTS
Duration : 1h 34mn
Bit rate mode : Constant
Bit rate : 1 510 Kbps
Channel(s) : 6 channels
Channel positions : Front: L C R, Side: L R, LFE
Sampling rate : 48.0 KHz
Bit depth : 24 bits
Compression mode : Lossy
Stream size : 1.00 GiB (11%)
Title : DUB-Blu-ray
Language : Russian
Default : Yes
Forced : No
Audio #2
ID : 3
Format : DTS
Format/Info : Digital Theater Systems
Codec ID : A_DTS
Duration : 1h 34mn
Bit rate mode : Constant
Bit rate : 1 510 Kbps
Channel(s) : 6 channels
Channel positions : Front: L C R, Side: L R, LFE
Sampling rate : 48.0 KHz
Bit depth : 24 bits
Compression mode : Lossy
Stream size : 1.00 GiB (11%)
Title : Original
Language : English
Default : No
Forced : No
Text
ID : 4
Format : UTF-8
Codec ID : S_TEXT/UTF8
Codec ID/Info : UTF-8 Plain Text
Title : Sub
Language : English
Default : Yes
Forced : No
Menu
00:00:00.000 : Chapter 1
3beb57dca5dc77832c0d581c53a54e79f1b302eaИгра на выживание / Gone (Эйтор Далия, триллер, драма, 2012) [BDRip 1080p, Дублированный + Оригинал + Sub] [US Transfer] Игра на выживание / Gone (Эйтор Далия, триллер, драма, 2012) [BDRip 1080p, Дублированный + Оригинал + Sub] [US Transfer] " />

Аплоадер: Админ, дата: 13-05-2012, 15:58, торрент скачан: 359 раз

Понравилась раздача? Посмотрите эти:
  • Хроника / Chronicle (Джошуа Транк, фантастика, боевик, триллер, драма, 2012 ...
  • Игра на выживание / Gone (Эйтор Далия, Триллер, драма, детектив, 2012) [BDR ...
  • Жизнь Пи / Life Of Pi (Энг Ли, Драма, приключения, 2012) [BDRip 1080p, Проф ...
  • Суррогат / The Sessions (Бен Луин, драма, 2012) [BDRip 720p, Профессиональн ...
  • Анна Каренина / Anna Karenina (Джо Райт, Драма, мелодрама, 2012) [BDRip 108 ...
  • Игра на выживание / Gone (Эйтор Далия, триллер, драма, 2012) [BDRip-AVC, Ду ...
  • Игра на выживание / Gone (Эйтор Далия, триллер, драма, 2012) [BDRip-AVC, Ду ...
  • Игра на выживание / Gone (Эйтор Далия, триллер, драма, 2012) [BDRip-AVC, Ду ...
  • Профессионал / Killer Elite (Гэри МакКендри, Боевик, Триллер, Криминал, 201 ...
  • Игра на выживание / Gone (Эйтор Далия, триллер, драма, 2012) [BDRip 720p, П ...
  • Игра на выживание / Gone (Эйтор Далия, триллер, драма, 2012) [BDRip 1080p, ...
  • Морской бой / Battleship (Питер Берг, Фантастика, боевик, триллер, приключе ...
  • Хижина в лесу / The Cabin in the Woods (Дрю Годдард, Ужасы, фантастика, три ...
  • Красные огни / Red Lights (Родриго Кортес, Ужасы, триллер, драма, 2012) [BD ...
  • Супер Майк / Magic Mike (Стивен Содерберг, Драма, комедия, 2012) [BDRip 108 ...
  • Коллекционер 2 / The Collection (Маркус Данстэн, ужасы, боевик, триллер, 20 ...
  • Игра на выживание / Gone (Эйтор Далия, триллер, драма, 2012) [DVD5, Професс ...
  • Игра на выживание / Gone (Эйтор Далия, триллер, драма, 2012) [HDRip, Дублир ...
  • Игра на выживание / Gone (Эйтор Далия, триллер, драма, 2012г) [320x240] [HD ...
  • Игра на выживание / Gone (Эйтор Далия, триллер, драма, 2012) [BDRip, Дубляж ...
  • Информация
    Посетители, находящиеся в группе Гости, не могут оставлять комментарии к данной публикации.