вход на сайт

Имя пользователя :
Пароль :

Восстановление пароля Регистрация
Бедная богатая девочка / Young Adult (Джейсон Райтман, драма, комедия, 2011) [BDRip 720p, Дублированный + Оригинал + Sub]
Рейтинг:
(голосов: 1)



[img]{THEME}/images/logopost.png[/img]



Бедная богатая девочка / Young Adult
«Все становятся старше. Но не все взрослеют»

Год выпуска: 2011
Страна: США
Производство: Paramount Pictures
Жанр: драма, комедия

Режиссёр: Джейсон Райтман
В ролях: Шарлиз Терон, Пэттон Освальт, Патрик Уилсон, Элизабет Ризер, Коллетт Вульф, Джилл Айкенберри, Ричард Бекинс, Мэри Бет Херт, Кейт Ноулин, Вирджиния ДаРе Полин

Перевод: Дублированный + Оригинал
Субтитры: Russian, Ukrainian, English

Описание: рагикомедия про писательницу, подрабатывающую литературным негром и выдающую тинейджерские романы, отправившуюся в родной город на поиски бывшего бойфренда, который успел обзавестись семьей и ребенком.



Релиз от:

Качество: BDRip 720p Сэмпл
Продолжительность: 01:33:39 час.

Формат: MKV
Видео кодек: AVC
Аудио кодек: AC3, DTS
Видео: 1280x720 (16:9), 23.976 fps, AVC ~5100 kbps, 0.231 bit/pix
Аудио: 48 kHz, AC3, 3/2 (L,C,R,l,r) + LFE ch, ~448.00 kbps avg | Russian (DUB)
Аудио: 48 kHz, DTS, 3/2 (L,C,R,l,r) + LFE ch, ~1510.00 kbps avg | English

Премьера (мир): 9 декабря 2011
Премьера (РФ): 19 января 2012, «Централ Партнершип»
MediaInfo ▼Общее
Полное имя : D:Young.Adult.2011.D.BDRip720p.IRONCLUB.mkv
Формат : Matroska
Версия формата : Version 2
Размер файла : 4,62 Гбайт
Продолжительность : 1 ч. 33 м.
Общий поток : 7058 Кбит/сек
Название фильма : ..:IRONCLUB:..
Дата кодирования : UTC 2012-05-03 12:59:49
Программа кодирования : mkvmerge v5.2.0 (I cant explain) built on Dec 18 2011 18:12:03
Библиотека кодирования : libebml v1.2.3 + libmatroska v1.3.0

Видео
Идентификатор : 1
Формат : AVC
Формат/Информация : Advanced Video Codec
Профиль формата : [email protected]
Параметр CABAC формата : Да
Параметр ReFrames формата : 9 кадров
Идентификатор кодека : V_MPEG4/ISO/AVC
Продолжительность : 1 ч. 33 м.
Битрейт : 5100 Кбит/сек
Ширина : 1280 пикселей
Высота : 720 пикселей
Соотношение сторон : 16:9
Частота кадров : 23,976 кадра/сек
Цветовое пространство : YUV
Субдискретизация насыщенности : 4:2:0
Битовая глубина : 8 бит
Тип развёртки : Прогрессивная
Бит/(Пиксели*Кадры) : 0.231
Размер потока : 3,25 Гбайт (70%)
Заголовок : ..:IRONCLUB:..
Библиотека кодирования : x264 core 120 r2164 da19765
Настройки программы : cabac=1 / ref=9 / deblock=1:-3:-2 / analyse=0x3:0x113 / me=tesa / subme=11 / psy=1 / psy_rd=1.15:0.02 / mixed_ref=1 / me_range=32 / chroma_me=1 / trellis=2 / 8x8dct=1 / cqm=0 / deadzone=21,11 / fast_pskip=0 / chroma_qp_offset=-3 / threads=12 / sliced_threads=0 / nr=0 / decimate=1 / interlaced=0 / bluray_compat=0 / constrained_intra=0 / bframes=6 / b_pyramid=2 / b_adapt=2 / b_bias=0 / direct=3 / weightb=1 / open_gop=0 / weightp=2 / keyint=240 / keyint_min=23 / scenecut=40 / intra_refresh=0 / rc_lookahead=80 / rc=2pass / mbtree=1 / bitrate=5100 / ratetol=1.0 / qcomp=0.65 / qpmin=0 / qpmax=69 / qpstep=4 / cplxblur=20.0 / qblur=0.5 / vbv_maxrate=40000 / vbv_bufsize=40000 / nal_hrd=none / ip_ratio=1.40 / aq=2:0.90 / zones=127765,134728,b=0.2
Язык : English
Default : Нет
Forced : Нет

Аудио #1
Идентификатор : 2
Формат : AC-3
Формат/Информация : Audio Coding 3
Расширение режима : CM (complete main)
Параметр Endianness формата : Big
Идентификатор кодека : A_AC3
Продолжительность : 1 ч. 33 м.
Вид битрейта : Постоянный
Битрейт : 448 Кбит/сек
Каналы : 6 каналов
Расположение каналов : Front: L C R, Side: L R, LFE
Частота : 48,0 КГц
Битовая глубина : 16 бит
Метод сжатия : С потерями
Размер потока : 300 Мбайт (6%)
Default : Нет
Forced : Нет

Аудио #2
Идентификатор : 3
Формат : DTS
Формат/Информация : Digital Theater Systems
Идентификатор кодека : A_DTS
Продолжительность : 1 ч. 33 м.
Вид битрейта : Постоянный
Битрейт : 1510 Кбит/сек
Каналы : 6 каналов
Расположение каналов : Front: L C R, Side: L R, LFE
Частота : 48,0 КГц
Битовая глубина : 24 бит
Метод сжатия : С потерями
Размер потока : 1012 Мбайт (21%)
Заголовок : DTS 5.1
Язык : English
Default : Да
Forced : Нет
&nb
f81c0ae8c2607539c34e2c9b99a3ad1ba7257f9eБедная богатая девочка / Young Adult (Джейсон Райтман, драма, комедия, 2011) [BDRip 720p, Дублированный + Оригинал + Sub] Бедная богатая девочка / Young Adult (Джейсон Райтман, драма, комедия, 2011) [BDRip 720p, Дублированный + Оригинал + Sub] " />

Аплоадер: Админ, дата: 3-05-2012, 23:59, торрент скачан: 359 раз

Понравилась раздача? Посмотрите эти:
  • Джобс: Империя соблазна / jOBS (Джошуа Майкл Штерн, драма, биография, 2013) ...
  • Ошибка телохранителя / The Girl from the Naked Eye (Дэвид Рен, боевик, трил ...
  • Главное - не бояться! / A Little Bit of Heaven (Николь Кэссел / Nicole Kass ...
  • Переростки / The Inbetweeners (Бен Палмер, Комедия, 2011) [BDRip-AVC, Профе ...
  • Бедная богатая девочка / Young Adult (Джейсон Райтман, Драма, 2011) [BDRip ...
  • Бедная богатая девочка / Young Adult (Джейсон Райтман, Драма, 2011) [BDRip ...
  • Бедная богатая девочка / Young Adult (Джейсон Райтман, драма, комедия, 2011 ...
  • Бедная богатая девочка / Young Adult (Джейсон Райтман, драма, комедия, 2011 ...
  • Бедная богатая девочка / Young Adult (Джейсон Райтман, драма, комедия, 2011 ...
  • Заражение / Contagion (Стивен Содерберг, Фантастика, 2011) [BDRip 1080p, Пр ...
  • Переростки / The Inbetweeners (Бен Палмер / Ben Palmer, комедия, 2011) [BDR ...
  • Ржевский против Наполеона (Марюс Вайсберг, Комедия, 2011) [BDRip 720p, Не т ...
  • Дирижёр (Павел Лунгин, драма, 2012) [BDRip 720p, Не требуется]
  • Дети сексу не помеха / Friends with Kids (Дженнифер Уэстфелд, комедия, 2011 ...
  • Свадебный разгром / A Few Best Men (Стефан Эллиотт, Комедия, 2011) [BDRip 7 ...
  • Павшая империя / Hirokin (Алехо Мо-Сан, фантастика, боевик, драма, приключе ...
  • Бедная богатая девочка / Young Adult (Джейсон Райтман / Jason Reitman, драм ...
  • Бедная богатая девочка / Young Adult (Джейсон Райтман, драма, комедия, 2011 ...
  • Бедная богатая девочка / Young Adult (Джейсон Райтман / Jason Reitman, драм ...
  • Бедная богатая девочка / Young Adult (Джейсон Райтман / Jason Reitman, драм ...
  • Информация
    Посетители, находящиеся в группе Гости, не могут оставлять комментарии к данной публикации.