вход на сайт

Имя пользователя :
Пароль :

Восстановление пароля Регистрация
Стыд / Shame (Стив МакКуин, драма, 2011) [BDRip 720p, Дублированный + Оригинал + Sub]
Рейтинг:
(голосов: 1)



[img]{THEME}/images/logopost.png[/img]



Стыд / Shame

Год выпуска: 2011
Страна: Великобритания
Производство: Film4, HanWay Films, Lip Sync Productions, Momentum Pictures, See-Saw Films
Жанр: драма

Режиссёр: Стив МакКуин
В ролях: Майкл Фассбендер, Кэри Маллиган, Джеймс Бэдж Дэйл, Николь Бихэйр, Алекс Манетт, Люсиль Уолтерс, Мари-Анхе Рамирес, Ханна Уэр, Элизабет Масуччи, Рэйчел Фаррар

Перевод: Дублированный + Оригинал
Субтитры: Russian (Voronine), English

Описание: Главный герой — житель Нью-Йорка, страдающий от эротомании и неспособный контролировать свою сексуальную жизнь. Он пытается обрести поддержку своих родных, а также ищет помощи у сотрудников.
"Знаете ли вы, что..." ▼-Фильм был снят за 25 дней.
-Несмотря на бюджет в 6.5 млн. долларов, кинокомпания Fox Searchlight Pictures заплатила лишь 600 тыс. долларов за прокат фильма.
-Сцена, где Брэндон слышит, как его сестра поет в ресторане, была снята в режиме реального времени. Так как Джеймс Бэдж Дэйл и Майкл Фассбендер никогда до этого не слышали ее голос, их реакция была настоящей. Сцена снималась в 3 часа ночи, а камеры были сфокусированы на трех главных персонажах.


Качество: BDRip 720p Сэмпл
Продолжительность: 01:41:08 час.

Формат: MKV
Видео кодек: AVC
Аудио кодек: AC3
Видео: 1280x544 (2,35:1), 23,976 fps, AVC ~5430 kbps, 0.325 bit/pix
Аудио: 48 kHz, AC3, 3/2 (L,C,R,l,r) + LFE ch, ~448.00 kbps avg | Russian (DUB)
Аудио: 48 kHz, AC3, 3/2 (L,C,R,l,r) + LFE ch, ~640.00 kbps avg | English

Премьера (мир): 4 сентября 2011
Премьера (РФ): 23 февраля 2012, «Кино без границ»
MediaInfo ▼Общее
Уникальный идентификатор : 180287877916373850677112494359397206100 (0x87A22EA92CFF97B1B7553039EACF0854)
Полное имя : D:Shame.2011.BDRip.720p.mkv
Формат : Matroska
Версия формата : Version 2
Размер файла : 4,70 Гбайт
Продолжительность : 1 ч. 41 м.
Общий поток : 6650 Кбит/сек
Название фильма : Стыд
Дата кодирования : UTC 2012-04-26 19:10:40
Программа кодирования : mkvmerge v5.1.0 (And so it goes) built on Nov 28 2011 23:58:28
Библиотека кодирования : libebml v1.2.3 + libmatroska v1.3.0
Видео
Идентификатор : 1
Формат : AVC
Формат/Информация : Advanced Video Codec
Профиль формата : [email protected]
Параметр CABAC формата : Да
Параметр ReFrames формата : 4 кадра
Идентификатор кодека : V_MPEG4/ISO/AVC
Продолжительность : 1 ч. 41 м.
Битрейт : 5430 Кбит/сек
Ширина : 1280 пикселей
Высота : 544 пикселя
Соотношение сторон : 2,35:1
Частота кадров : 23,976 кадра/сек
Цветовое пространство : YUV
Субдискретизация насыщенности : 4:2:0
Битовая глубина : 8 бит
Тип развёртки : Прогрессивная
Бит/(Пиксели*Кадры) : 0.325
Размер потока : 3,84 Гбайт (82%)
Заголовок : Стыд
Библиотека кодирования : x264 core 116 r2057 0ba8a9c
Настройки программы : cabac=1 / ref=3 / deblock=1:-3:-3 / analyse=0x3:0x133 / me=umh / subme=10 / psy=1 / psy_rd=1.00:0.00 / mixed_ref=1 / me_range=32 / chroma_me=1 / trellis=2 / 8x8dct=1 / cqm=0 / deadzone=21,11 / fast_pskip=0 / chroma_qp_offset=-2 / threads=18 / sliced_threads=0 / nr=0 / decimate=0 / interlaced=0 / bluray_compat=0 / constrained_intra=0 / bframes=7 / b_pyramid=2 / b_adapt=2 / b_bias=0 / direct=3 / weightb=1 / open_gop=0 / weightp=2 / keyint=250 / keyint_min=23 / scenecut=40 / intra_refresh=0 / rc_lookahead=40 / rc=crf / mbtree=0 / crf=17.0 / qcomp=0.65 / qpmin=0 / qpmax=40 / qpstep=4 / vbv_maxrate=50000 / vbv_bufsize=50000 / crf_max=0.0 / nal_hrd=none / ip_ratio=1.25 / pb_ratio=1.25 / aq=1:0.65
Язык : English
Default : Да
Forced : Нет
Аудио #1
Идентификатор : 2
Формат : AC-3
Формат/Информация : Audio Coding 3
Расширение режима : CM (complete main)
Параметр Endianness формата : Big
Идентификатор кодека : A_AC3
Продолжительность : 1 ч. 41 м.
Вид битрейта : Постоянный
Битрейт : 448 Кбит/сек
Каналы : 6 каналов
Расположение каналов : Front: L C R, Side: L R, LFE
Частота : 48,0 КГц
Битовая глубина : 16 бит
Метод сжатия : С потерями
Размер потока : 324 Мбайт (7%)
Заголовок : AC3 - Дубляж
Язык : Russian
Defau
14a2347c98baf2940e75fec1134929503ead3768Стыд / Shame (Стив МакКуин, драма, 2011) [BDRip 720p, Дублированный + Оригинал + Sub] Стыд / Shame (Стив МакКуин, драма, 2011) [BDRip 720p, Дублированный + Оригинал + Sub] " />

Аплоадер: Админ, дата: 2-05-2012, 04:23, торрент скачан: 359 раз

Понравилась раздача? Посмотрите эти:
  • Джобс: Империя соблазна / jOBS (Джошуа Майкл Штерн, драма, биография, 2013) ...
  • Одноклассники 2 / Grown Ups 2 (Деннис Дуган, Комедия, 2013) [BDRip-AVC, Про ...
  • Околофутбола (Антон Борматов, драма, криминал, 2013) [BDRip 720p, Не требуе ...
  • Византия / Byzantium (Нил Джордан, Фэнтези, триллер, драма, 2012) [BDRip 10 ...
  • Иллюзия обмана / Now You See Me [Extended Cut] (Луи Летерье, триллер, крими ...
  • Гадкий я 2 / Despicable Me 2 (Пьер Соффин, Крис Рено, мультфильм, фантастик ...
  • Ошибка телохранителя / The Girl from the Naked Eye (Дэвид Рен, боевик, трил ...
  • Главное - не бояться! / A Little Bit of Heaven (Николь Кэссел / Nicole Kass ...
  • Переростки / The Inbetweeners (Бен Палмер, Комедия, 2011) [BDRip-AVC, Профе ...
  • Стыд / Shame (Стив МакКуин, Драма, 2011) [HDRip - AVC, Дубляж + SUB]
  • Стыд / Shame (Стив МакКуин, Драма, 2011) [BDRip - AVC, Дубляж + Оригинал + ...
  • Стыд / Shame (Стив МакКуин, драма, 2011) [HDRip-AVC, Дублированный + Субтит ...
  • Секретная служба Санта-Клауса / Arthur Christmas (Сара Смит, Бэрри Кук, Мул ...
  • Переростки / The Inbetweeners (Бен Палмер / Ben Palmer, комедия, 2011) [BDR ...
  • Стыд / Shame (Стив МакКуин, драма, 2011) [BDRip 1080p, полное дублирование, ...
  • Бедная богатая девочка / Young Adult (Джейсон Райтман, драма, комедия, 2011 ...
  • Свадебный разгром / A Few Best Men (Стефан Эллиотт, Комедия, 2011) [BDRip 7 ...
  • Стыд / Shame (Стив МакКуин, драма, 2011) [BDRemux 1080p, Дублированный + Од ...
  • Бульвар спасения / Salvation Boulevard (Джордж Рэтлифф, Боевик, триллер, др ...
  • Павшая империя / Hirokin (Алехо Мо-Сан, фантастика, боевик, драма, приключе ...
  • Стыд / Shame (Стив МакКуин, Драма, 2011) [BDRip-AVC, Профессиональный (полн ...
  • Стыд / Shame (Стив МакКуин, драма, 2011) [HDRip, Профессиональный (полное д ...
  • Стыд / Shame (Стив МакКуин, драма, 2011) [HDRip, Дублированный + Оригинал] ...
  • Стыд / Shame (Стив МакКуин, Драма, 2011) [BDRip, Дубляж]
  • Стыд / Shame (Стив МакКуин, драма, 2011) [BDRip, Авторский (одноголосый, за ...
  • Информация
    Посетители, находящиеся в группе Гости, не могут оставлять комментарии к данной публикации.