вход на сайт

Имя пользователя :
Пароль :

Восстановление пароля Регистрация
Стыд / Shame (Стив МакКуин, драма, 2011) [BDRip 1080p, полное дублирование, оригинал, субтитры]
Рейтинг:
(голосов: 1)



[img]{THEME}/images/logopost.png[/img]



Стыд / Shame

Год выпуска:2011
Страна:Великобритания
Производство:Film4, HanWay Films, Lip Sync Productions, Momentum Pictures, See-Saw Films
Жанр:драма
Режиссёр:Стив МакКуин
В ролях:Майкл Фассбендер, Кэри Маллиган, Джеймс Бэдж Дэйл, Николь Бихэйр, Алекс Манетт, Люсиль Уолтерс, Мари-Анхе Рамирес, Ханна Уэр, Элизабет Масуччи, Рэйчел Фаррар
Перевод:полное дублирование, оригинал
Субтитры: русские (2 вида, [ak79] и [Dub & Serena]), английские
Описание:
Главный герой — житель Нью-Йорка, страдающий от эротомании и неспособный контролировать свою сексуальную жизнь. Он пытается обрести поддержку своих родных, а также ищет помощи у сотрудников.
IMDB: рейтинг 7.60 (25 027)
КиноПоиск: рейтинг 6.933(4 828)
премьера (мир) 4 сентября 2011
премьера (РФ) 23 февраля 2012

MediaInfo: ▼
Text
Общее
Уникальный идентификатор : 210016233130481407127026891115437986380 (0x9DFFA7BC746713468E7851664347924C)
Полное имя : D:Shame.2011.BDRip.1080p.mkv
Формат : Matroska
Версия формата : Version 2
Размер файла : 13,0 Гбайт
Продолжительность : 1 ч. 41 м.
Общий поток : 18,3 Мбит/сек
Дата кодирования : UTC 2012-04-27 09:17:27
Программа кодирования : mkvmerge v5.5.0 (Healer) built on Apr 6 2012 21:43:24
Библиотека кодирования : libebml v1.2.3 + libmatroska v1.3.0

Видео
Идентификатор : 1
Формат : AVC
Формат/Информация : Advanced Video Codec
Профиль формата : [email protected]
Параметр CABAC формата : Да
Параметр ReFrames формата : 5 кадров
Идентификатор кодека : V_MPEG4/ISO/AVC
Продолжительность : 1 ч. 41 м.
Битрейт : 16,4 Мбит/сек
Ширина : 1920 пикселей
Высота : 816 пикселей
Соотношение сторон : 2,35:1
Частота кадров : 23,976 кадра/сек
Цветовое пространство : YUV
Субдискретизация насыщенности : 4:2:0
Битовая глубина : 8 бит
Тип развёртки : Прогрессивная
Бит/(Пиксели*Кадры) : 0.436
Размер потока : 11,3 Гбайт (87%)
Библиотека кодирования : x264 core 122 r2184 5c85e0a
Настройки программы : cabac=1 / ref=5 / deblock=1:-3:-3 / analyse=0x3:0x113 / me=umh / subme=11 / psy=1 / psy_rd=1.00:0.07 / mixed_ref=1 / me_range=56 / chroma_me=1 / trellis=2 / 8x8dct=1 / cqm=0 / deadzone=21,11 / fast_pskip=0 / chroma_qp_offset=-3 / threads=36 / sliced_threads=0 / slices=4 / nr=0 / decimate=1 / interlaced=0 / bluray_compat=0 / constrained_intra=0 / bframes=8 / b_pyramid=2 / b_adapt=2 / b_bias=0 / direct=3 / weightb=1 / open_gop=0 / weightp=2 / keyint=240 / keyint_min=23 / scenecut=40 / intra_refresh=0 / rc_lookahead=240 / rc=2pass / mbtree=1 / bitrate=16384 / ratetol=1.0 / qcomp=0.60 / qpmin=0 / qpmax=69 / qpstep=4 / cplxblur=20.0 / qblur=0.5 / vbv_maxrate=50000 / vbv_bufsize=40000 / nal_hrd=none / ip_ratio=1.40 / aq=1:1.00
Язык : English
Default : Да
Forced : Нет
Основные цвета : BT.709-5, BT.1361, IEC 61966-2-4, SMPTE RP177
Характеристики трансфера : BT.709-5, BT.1361
Коэффициенты матрицы : BT.709-5, BT.1361, IEC 61966-2-4 709, SMPTE RP177

Аудио #1
Идентификатор : 2
Формат : AC-3
Формат/Информация : Audio Coding 3
Расширение режима : CM (complete main)
Параметр Endianness формата : Big
Идентификатор кодека : A_AC3
Продолжительность : 1 ч. 41 м.
Вид битрейта : Постоянный
Битрейт : 448 Кбит/сек
Каналы : 6 каналов
Расположение каналов : Front: L C R, Side: L R, LFE
Частота : 48,0 КГц
Битовая глубина : 16 бит
Метод сжатия : С потерями
Размер потока : 324 Мбайт (2%)
Заголовок : RUS
Язык : Russian
Default : Да
Forced : Да

Аудио #2
Идентификатор : 3
Формат : DTS
Формат/Информация : Digital Theater Systems
Идентификатор кодека : A_DTS
Продолжительность : 1 ч. 41 м.
Вид битр
5cd9d3694f8b98c00ee6db0a4ba0584e8ea37126Стыд / Shame (Стив МакКуин, драма, 2011) [BDRip 1080p, полное дублирование, оригинал, субтитры] Стыд / Shame (Стив МакКуин, драма, 2011) [BDRip 1080p, полное дублирование, оригинал, субтитры] " />

Аплоадер: Админ, дата: 28-04-2012, 13:55, торрент скачан: 359 раз

Понравилась раздача? Посмотрите эти:
  • Византия / Byzantium (Нил Джордан, Фэнтези, триллер, драма, 2012) [BDRip 10 ...
  • Гадкий я 2 / Despicable Me 2 (Пьер Соффин, Крис Рено, мультфильм, фантастик ...
  • Исходный код / Source Code (Дункан Джонс, фантастика, боевик, триллер, драм ...
  • Отвези меня домой / Take Me Home Tonight (Майкл Даус, комедия, драма, 2011) ...
  • Конан-варвар / Conan the Barbarian (Маркус Ниспел,фэнтези, боевик, приключе ...
  • Драйв / Drive (Николас Виндинг Рёфн, боевик, триллер, драма, криминал, 2011 ...
  • Стыд / Shame (Стив МакКуин, Драма, 2011) [HDRip - AVC, Дубляж + SUB]
  • Стыд / Shame (Стив МакКуин, Драма, 2011) [BDRip - AVC, Дубляж + Оригинал + ...
  • Стыд / Shame (Стив МакКуин, драма, 2011) [HDRip-AVC, Дублированный + Субтит ...
  • День учителя (Сергей Мокрицкий, драма, 2012) [DVDRip-AVC, Не требуется]
  • Приключения Тинтина: Тайна Единорога / The Adventures of Tintin (Стивен Спи ...
  • Заражение / Contagion (Стивен Содерберг, Фантастика, 2011) [BDRip 1080p, Пр ...
  • Переростки / The Inbetweeners (Бен Палмер / Ben Palmer, комедия, 2011) [BDR ...
  • Схватка / The Grey (Джо Карнахан, боевик, триллер, драма, приключения, 2012 ...
  • Стыд / Shame (Стив МакКуин, драма, 2011) [BDRip 720p, Дублированный + Ориги ...
  • Охотник / The Hunter (Дэниэл Неттхейм, драма, приключения, 2011) [BDRip 108 ...
  • Стыд / Shame (Стив МакКуин, драма, 2011) [BDRemux 1080p, Дублированный + Од ...
  • Двигай время! / Los ilusionautas (Эдуардо Шульдт, Мультфильм, фэнтези, прик ...
  • Черное золото / Black Gold (Жан-Жак Анно, драма, 2011) [BDRip 1080p, Профес ...
  • Мстители / The Avengers (Джосс Уидон, фантастика, боевик, триллер, 2012) [B ...
  • Счастливчик / The Lucky One (Скотт Хикс, Драма, мелодрама, 2012) [BDRip 108 ...
  • Стыд / Shame (Стив МакКуин, Драма, 2011) [BDRip-AVC, Профессиональный (полн ...
  • Стыд / Shame (Стив МакКуин, драма, 2011) [HDRip, Профессиональный (полное д ...
  • Стыд / Shame (Стив МакКуин, Драма, 2011) [BDRip, Дубляж]
  • Стыд / Shame (Стив МакКуин, драма, 2011) [BDRip, Авторский (одноголосый, за ...
  • Информация
    Посетители, находящиеся в группе Гости, не могут оставлять комментарии к данной публикации.