вход на сайт

Имя пользователя :
Пароль :

Восстановление пароля Регистрация
Материк / Terraferma (Эмануэле Криалезе, драма, 2011) [BDRip 720p, Дублированный + Оригинал + Sub]
Рейтинг:
(голосов: 1)



[img]{THEME}/images/logopost.png[/img]



Материк / Terraferma

Год выпуска: 2011
Страна: Франция Италия
Производство: Cattleya, Babe Film, France 2 Cinéma
Жанр: драма

Режиссёр: Эмануэле Криалезе
В ролях: Филиппо Пучилло, Донателла Финокьяро, Беппе Фиорелло, Миммо Кутиккьо, Тициана Лодато, Клаудио Сантамария, Титти

Перевод: Дублированный + Оригинал
Субтитры: Русские, английские, итальянские

Описание: Жители живописного сицилийского острова Лампедуза испокон веков зарабатывали себе на жизнь рыболовным промыслом. Но времена изменились. Выросшие дети понимают, что море не будет кормить их вечно. В центре конфликта оказывается юный сын погибшего рыбака: родной дядя пытается вовлечь племянника в туристический бизнес, в то время как дед требует хранить верность рыбацким традициям. Отношения внутри семьи накаляются до предела, когда на остров прибывает целая партия нелегальных беженцев из Африки.

По закону рыбаки обязаны сообщить о происшествии властям, после чего эмигранты будут экстрадированы обратно в Африку. Привыкшие оказывать помощь всем попавшим в беду, сицилийские рыбаки не могут допустить, чтобы по их вине пострадали женщины и дети. Члены семьи оказываются перед непростым выбором.



Качество: BDRip 720pСэмпл
Продолжительность: 01:33:21 час.

Формат: MKV
Видео кодек: AVC
Аудио кодек: AC3
Видео: 1280х544 (2.40:1), 23.976 fps, AVC, ~5 681 Kbps, 0.340 bits/pixel
Аудио: 48.0 KHz, AC3, 6 ch, 384 kbps | Russian (DUB)
Аудио: 48.0 KHz, AC3, 6 ch, 640 kbps | Italian

Премьера (мир): 4 сентября 2011
Премьера (РФ): 29 марта 2012, «Другое кино»
Mediainfo ▼General
Complete name : Materik.2011.P.BDRip.720p.mkv
Format : Matroska
File size : 4.46 GiB
Duration : 1h 33mn
Overall bit rate : 6 841 Kbps
Movie name : Materik
Encoded date : UTC 2012-04-20 07:33:52
Writing application : mkvmerge v4.9.1 (Ich will) сборка от Jul 11 2011 23:53:15
Writing library : libebml v1.2.1 + libmatroska v1.1.1

Video
ID : 1
Format : AVC
Format/Info : Advanced Video Codec
Format profile : [email protected]
Format settings, CABAC : Yes
Format settings, ReFrames : 12 frames
Codec ID : V_MPEG4/ISO/AVC
Duration : 1h 33mn
Bit rate : 5 681 Kbps
Width : 1 280 pixels
Height : 544 pixels
Display aspect ratio : 2.35:1
Frame rate : 23.976 fps
Color space : YUV
Chroma subsampling : 4:2:0
Bit depth : 8 bits
Scan type : Progressive
Bits/(Pixel*Frame) : 0.340
Stream size : 3.70 GiB (83%)
Title : Terraferma 2011 720p BluRay AC3 x264-EbP
Writing library : x264 core 119 r2106 07efeb4
Encoding settings : cabac=1 / ref=12 / deblock=1:-3:-3 / analyse=0x3:0x133 / me=umh / subme=9 / psy=1 / psy_rd=1.25:0.10 / mixed_ref=1 / me_range=16 / chroma_me=1 / trellis=2 / 8x8dct=1 / cqm=0 / deadzone=21,11 / fast_pskip=0 / chroma_qp_offset=-3 / threads=12 / sliced_threads=0 / nr=0 / decimate=0 / interlaced=0 / bluray_compat=0 / constrained_intra=0 / bframes=8 / b_pyramid=2 / b_adapt=2 / b_bias=0 / direct=3 / weightb=1 / open_gop=0 / weightp=2 / keyint=250 / keyint_min=23 / scenecut=40 / intra_refresh=0 / rc=crf / mbtree=0 / crf=17.4 / qcomp=0.60 / qpmin=10 / qpmax=51 / qpstep=4 / ip_ratio=1.40 / pb_ratio=1.30 / aq=1:0.65
Language : Italian

Audio #1
ID : 2
Format : AC-3
Format/Info : Audio Coding 3
Mode extension : CM (complete main)
Codec ID : A_AC3
Duration : 1h 33mn
Bit rate mode : Constant
Bit rate : 384 Kbps
Channel(s) : 6 channels
Channel positions : Front: L C R, Side: L R, LFE
Sampling rate : 48.0 KHz
Bit depth : 16 bits
Stream size : 256 MiB (6%)
Title : MVO
Language : Russian

Audio #2
ID : 3
Format : AC-3
Format/Info : Audio Coding 3
Mode extension : CM (complete main)
Codec ID : A_AC3
Duration : 1h 33mn
Bit rate mode : Constant
Bit rate : 640 Kbps
Channel(s) : 6 channels
Channel positions : Front: L C R, Side: L R, LFE
Sampling rate : 48.0 KHz
Bit depth : 16 bits
Stream size : 427 MiB (9%)
Title : Original
Language : Italian

Text #1
ID : 4
Format : UTF-8
Codec ID : S_TEXT/UTF8
Codec ID/Info : UTF-8 Plain Text
Title : Full
Language : Ru
97c73ee1bdc12c7ef6c2e2c9d743e81822d4d99eМатерик / Terraferma (Эмануэле Криалезе, драма, 2011) [BDRip 720p, Дублированный + Оригинал + Sub] Материк / Terraferma (Эмануэле Криалезе, драма, 2011) [BDRip 720p, Дублированный + Оригинал + Sub] " />

Аплоадер: Админ, дата: 22-04-2012, 06:08, торрент скачан: 359 раз

Понравилась раздача? Посмотрите эти:
  • Убить по расписанию / Ticking Clock (Эрни Барбараш, фантастика, боевик, три ...
  • Шелуха / Husk (Бретт Симмонс, ужасы, триллер, 2011) [BDRip 720p, Профессион ...
  • Персонаж / Stranger Than Fiction (Марк Форстер, Комедия, драма, фантастика, ...
  • Материк / Terraferma (Эмануэле Криалезе, драма, 2011) [HDRip-AVC, Профессио ...
  • Бедная богатая девочка / Young Adult (Джейсон Райтман, драма, комедия, 2011 ...
  • Неизвестный / Unknown (Жауме Серра / Jaume Collet-Serra, триллер, драма, де ...
  • Исходный код / Source Code (Дункан Джонс, фантастика, боевик, триллер, 2011 ...
  • Бобер / The Beaver (Джоди Фостер, драма, 2011) [BDRip 720p, Дубляж + Оригин ...
  • Секс по дружбе / Friends with Benefits (Уилл Глак, драма, мелодрама, комеди ...
  • Дети шпионов 4D / Spy Kids: All the Time in the World in 4D (Роберт Родриге ...
  • Мальчишник 2: Из Вегаса в Бангкок / The Hangover Part II (Тодд Филлипс, ком ...
  • Чаббчаббы спасают Рождество / The Chubbchubbs Save Xmas (Коуди Камерон, мул ...
  • Человек, который изменил всё / Moneyball (Беннетт Миллер, драма, биография, ...
  • Паранормальное явление 3 / Paranormal Activity 3 [Theatrical Cut] (Генри Дж ...
  • Похищенная / A Lonely Place to Die (Джулиан Джилби, триллер, криминал, прик ...
  • Мачо и ботан / 21 Jump Street (Фил Лорд, Крис Миллер, боевик, комедия, 2012 ...
  • Ворон / The Raven (Джеймс МакТиг, Триллер, детектив, 2012) [BDRip 720p, Дуб ...
  • Mylene Farmer / Du Temps [2011, Pop, HDTVRip]
  • Материк / Terraferma (Эмануэле Криалезе, драма, 2011) [HDRip, Профессиональ ...
  • Материк / Terraferma (Эмануэле Криалезе, драма, 2011) [HDRip, Профессиональ ...
  • Информация
    Посетители, находящиеся в группе Гости, не могут оставлять комментарии к данной публикации.