вход на сайт

Имя пользователя :
Пароль :

Восстановление пароля Регистрация
Другой мир: Пробуждение / Underworld: Awakening (Монс Морлинд, Бьёрн Стейн, ужасы, фэнтези, боевик, 2012) [BDRip 1080p, Профессиональный (полное дублирование) x2 + Оригинал + субтитры]
Рейтинг:
(голосов: 1)



[img]{THEME}/images/logopost.png[/img]



Другой мир: Пробуждение / Underworld: Awakening

«Месть проснулась»

Год выпуска: 2012 г.
Страна: США
Производство: Screen Gems, Lakeshore Entertainment, Saturn Films
Жанр: Ужасы, фэнтези, боевик

Режиссёр: Монс Морлинд / Mans Marlind, Бьёрн Стейн / Björn Stein
В ролях: Кейт Бекинсейл, Стивен Ри, Майкл Или, Тео Джеймс, Индия Айли, Чарльз Дэнс, Сандрин Холт, Кристен Холден-Рид, Джейкоб Блэр, Адам Рейд

Перевод: Профессиональный (полное дублирование) [Blu-ray]
+ Профессиональный (полное дублирование) [Украинский]
+ Оригинал
Субтитры: Русские (Blu-ray CEE), английские (Commentary), английские (Full, Forced, Commentary)

Описание:
Через 12 лет в состоянии, близком к коматозному, Селин узнает о существовании родной дочери Евы — гибрида вампира и ликана. И Селин необходимо помешать БиоКом создать суперликанов, которые убьют их всех.
Качество: BDRip 1080p
Продолжительность: 01:28:34 час.

Формат: MKV
Видео кодек: H.264
Аудио кодек: AC3, DTS
Видео: 1920x800 (2.40:1), 23,976 fps, Advanced Video Codec ([email protected]) ~9 086 kbps avg, 0.247 bit/pixel
Аудио #1: 48 kHz, AC3 Dolby Digital, 3/2 (L,C,R,l,r) + LFE ch, ~640 kbps avg | Дубляж (Blu-ray CEE)
Аудио #2: 48 kHz, AC3 Dolby Digital, 3/2 (L,C,R,l,r) + LFE ch, ~640 kbps avg | Дубляж (Blu-ray CEE) [Украинский]
Аудио #3: 48 kHz, Digital Theater Systems, 3/2 (L,C,R,l,r) + LFE ch, ~1 510 kbps avg | Оригинал (Английский)
Аудио #4: 48 kHz, AC3 Dolby Digital, 2/0 (L,R) ch, ~192 kbps avg[ | Комментарии создателей (Английский)

Дата премьеры (мир): 19 января 2012
Дата премьеры (РФ): 19 января 2012, «WDSSPR» 3D

MediaInfo ▼TextFormat : Matroska
File size : 7.47 GiB
Duration : 1h 28mn
Overall bit rate : 12.1 Mbps
Encoded date : UTC 2012-04-20 23:17:20
Writing application : mkvmerge v5.0.1 (Es ist Sommer) built on Oct 9 2011 11:55:43
Writing library : libebml v1.2.2 + libmatroska v1.3.0

Video
ID : 1
Format : AVC
Format/Info : Advanced Video Codec
Format profile : [email protected]
Format settings, CABAC : Yes
Format settings, ReFrames : 5 frames
Format settings, GOP : M=2, N=16
Muxing mode : Container [email protected]
Codec ID : V_MPEG4/ISO/AVC
Duration : 1h 28mn
Bit rate : 9 086 Kbps
Width : 1 920 pixels
Height : 800 pixels
Display aspect ratio : 2.40:1
Frame rate : 23.976 fps
Color space : YUV
Chroma subsampling : 4:2:0
Bit depth : 8 bits
Scan type : Progressive
Bits/(Pixel*Frame) : 0.247
Stream size : 5.47 GiB (73%)
Title : Underworld: Awakening 2012 2D-transfer SECTOR7
Writing library : x264 core 122 r2184 5c85e0a
Encoding settings : cabac=1 / ref=5 / deblock=1:0:0 / analyse=0x3:0x133 / me=umh / subme=8 / psy=1 / psy_rd=1.00:0.00 / mixed_ref=1 / me_range=16 / chroma_me=1 / trellis=1 / 8x8dct=1 / cqm=0 / deadzone=21,11 / fast_pskip=1 / chroma_qp_offset=-2 / threads=24 / sliced_threads=0 / nr=0 / decimate=1 / interlaced=0 / bluray_compat=0 / constrained_intra=0 / bframes=3 / b_pyramid=2 / b_adapt=1 / b_bias=0 / direct=1 / weightb=1 / open_gop=0 / weightp=2 / keyint=250 / keyint_min=23 / scenecut=40 / intra_refresh=0 / rc=2pass / mbtree=0 / bitrate=9086 / ratetol=1.0 / qcomp=0.60 / qpmin=0 / qpmax=69 / qpstep=4 / cplxblur=20.0 / qblur=0.5 / ip_ratio=1.40 / pb_ratio=1.30 / aq=1:1.00
Language : English

Audio #1
ID : 2
Format : AC-3
Format/Info : Audio Coding 3
Mode extension : CM (complete main)
Codec ID : A_AC3
Duration : 1h 28mn
Bit rate mode : Constant
Bit rate : 640 Kbps
Channel(s) : 6 channels
Channel positions : Front: L C R, Side: L R, LFE
Sampling rate : 48.0 KHz
Bit depth : 16 bits
Stream size : 405 MiB (5%)
Title : AC3 5.1 640 kbps DUB, Blu-ray CEE
Language : Russian

Audio #2
ID : 3
Format : AC-3
Format/Info : Audio Coding 3
Mode extension : CM (complete main)
Codec ID : A_AC3
Duration : 1h 28mn
Bit rate mode : Constant
Bit rate : 640 Kbps
Channel(s) : 6 channels
Channel positions : Front: L C R, Side: L R, LFE
Sampling rate : 48.0 KHz
Bit depth : 16 bits
Stream size : 405 MiB (5%)
Title : AC3 5.1 640 kbps DUB, Blu-ray
e072ba8950dca780cd4b7b3fa7863281bcc2b5b1Другой мир: Пробуждение / Underworld: Awakening (Монс Морлинд, Бьёрн Стейн, ужасы, фэнтези, боевик, 2012) [BDRip 1080p, Профессиональный (полное дублирование) x2 + Оригинал + субтитры] Другой мир: Пробуждение / Underworld: Awakening (Монс Морлинд, Бьёрн Стейн, ужасы, фэнтези, боевик, 2012) [BDRip 1080p, Профессиональный (полное дублирование) x2 + Оригинал + субтитры] " />

Аплоадер: Админ, дата: 21-04-2012, 22:49, торрент скачан: 359 раз

Понравилась раздача? Посмотрите эти:
  • Пастырь / Priest (Скотт Чарльз Стюарт, ужасы, фантастика, боевик, триллер, ...
  • Жизнь Пи / Life Of Pi (Энг Ли, Драма, приключения, 2012) [BDRip 720p, Профе ...
  • Жизнь Пи / Life Of Pi (Энг Ли, Драма, приключения, 2012) [BDRip 1080p, Проф ...
  • Голодный кролик атакует / Seeking Justice (Роджер Дональдсон / Roger Donald ...
  • Другой мир: Пробуждение / Underworld: Awakening (Монс Морлинд, Бьёрн Стейн, ...
  • Другой мир: Пробуждение / Underworld: Awakening (Монс Морлинд, Бьёрн Стейн, ...
  • Другой мир: Пробуждение / Underworld: Awakening (Монс Морлинд, Бьёрн Стейн, ...
  • Другой мир: Пробуждение / Underworld: Awakening (Монс Морлинд, Бьёрн Стейн, ...
  • Фантомы / Shutter (Масаюки Очиай, ужасы, триллер, детектив, 2008) [BDRip-AV ...
  • Коллекционер 2 / The Collection (Маркус Данстэн, ужасы, боевик, триллер , 2 ...
  • [3D] Другой мир: Пробуждение / Underworld: Awakening (Манс Марлинд , Ужасы ...
  • [3D] Другой мир: Пробуждение / Underworld: Awakening (Манс Марлинд , ужасы, ...
  • [3D] Другой мир: Пробуждение / Underworld: Awakening (Монс Морлинд, Бьёрн С ...
  • Другой мир: Пробуждение / Underworld: Awakening (Монс Морлинд, Бьёрн Стейн, ...
  • Другой мир: Пробуждение / Underworld: Awakening (Манс Марлинд, Бьёрн Стейн, ...
  • Другой мир: Пробуждение / Underworld: Awakening (Монс Морлинд, Бьёрн Стейн, ...
  • Убежище / Shelter (Монс Морлинд, Бьёрн Стейн, ужасы, триллер, детектив, 201 ...
  • Другой мир: Пробуждение / Underworld: Awakening (Манс Марлинд, Бьёрн Стейн, ...
  • Другой мир: Пробуждение / Underworld: Awakening (Монс Морлинд / Mans Marlin ...
  • Другой мир: Пробуждение / Underworld: Awakening (Монс Морлинд / Mans Marlin ...
  • Другой мир: Пробуждение / Underworld: Awakening (Монс Морлинд, Бьёрн Стейн, ...
  • Другой мир: Пробуждение / Underworld: Awakening (Манс Марлинд, Бьёрн Стейн, ...
  • [3D] Другой мир: Пробуждение / Underworld: Awakening (Монс Морлинд, Бьёрн С ...
  • Другой мир: Пробуждение / Underworld: Awakening (Манс Марлинд, Бьёрн Стейн, ...
  • Другой мир: Пробуждение / Underworld: Awakening (Монс Морлинд, Бьёрн Стейн, ...
  • Информация
    Посетители, находящиеся в группе Гости, не могут оставлять комментарии к данной публикации.