вход на сайт

Имя пользователя :
Пароль :

Восстановление пароля Регистрация
Другой мир: Пробуждение / Underworld: Awakening (Манс Марлинд, Бьёрн Стейн, ужасы, фэнтези, боевик , 2012) [BD-Remux 1080р , Дублированный(рус., укр) + оригинал + субтитры]
Рейтинг:
(голосов: 1)



[img]{THEME}/images/logopost.png[/img]



Другой мир: Пробуждение / Underworld: Awakening
«Месть проснулась»
Год выпуска: 2012
Страна: США
Производство: Screen Gems Studios
Жанр: ужасы, фэнтези, боевик

Режиссёр: Манс Марлинд, Бьёрн Стейн
В ролях: Кейт Бекинсейл, Стивен Ри, Майкл Или, Тео Джеймс, Индия Айли, Чарльз Дэнс, Кристен Холден-Рид, Сандрин Холт, Ричард Цетрон, Сэнни Ван Хетерен

Перевод: Дублированный (рус., укр) + оригинал
Субтитры: Русские, эстонские, литовские, английские

Описание:Через 12 лет в состоянии, близком к коматозному, Селин узнает о существовании родной дочери Ниссы — гибрида вампира и ликана. И Селин необходимо помешать БиоКом создать суперликанов, которые убьют их всех.Качество: BD-Remux 1080р
Продолжительность: 01:28:34

Формат: MKV
Видео кодек: MPEG-4 AVC
Аудио кодек: AC3, DTS
Видео: 1920x1080 (16:9), 23.976 fps, MPEG-4 ~23,4 mb/s, 0.471 bit/pixel
Аудио#1:Русский / 48 kHz, AC3 Dolby Digital, 6 ch, 640 kbps
Аудио#2:Украинский / 48 kHz, AC3 Dolby Digital, 6 ch, 640 kbps
Аудио#3:Английский / 48 kHz, DTS,6 ch, 2422 kbpsПремьеры:
• Премьера (мир): 19 января 2012
• премьера (РФ): 19 января 2012, «WDSSPR»
• релиз на DVD: 21 февраля 2012, «Columbia/Sony»
• релиз на Blu-Ray: 15 мая 2012, «Columbia/Sony»
MediaInfo ▼TextОбщее
Уникальный идентификатор : 171278193382131195264518406301406412930 (0x80DAFAEAD117368787233967DAA74082)
Полное имя : H:DownloadsBLU-RAY REMUXDrugoj.mir-Probuzhdenie.2012.MPEG-4-AVC.BluRay-Remux(1080p).mkv
Формат : Matroska
Версия формата : Version 2
Размер файла : 16,6 Гбайт
Продолжительность : 1 ч. 28 м.
Режим общего битрейта : Переменный
Общий поток : 26,8 Мбит/сек
Название фильма : --SCHUMAHER--
Дата кодирования : UTC 2012-04-18 08:45:19
Программа кодирования : mkvmerge v5.5.0 (Healer) built on Apr 6 2012 21:43:24
Библиотека кодирования : libebml v1.2.3 + libmatroska v1.3.0

Видео
Идентификатор : 1
Формат : AVC
Формат/Информация : Advanced Video Codec
Профиль формата : [email protected]
Параметр CABAC формата : Да
Параметр ReFrames формата : 2 кадра
Идентификатор кодека : V_MPEG4/ISO/AVC
Продолжительность : 1 ч. 28 м.
Вид битрейта : Переменный
Битрейт : 23,4 Мбит/сек
Ширина : 1920 пикселей
Высота : 1080 пикселей
Соотношение сторон : 16:9
Частота кадров : 23,976 кадра/сек
Цветовое пространство : YUV
Субдискретизация насыщенности : 4:2:0
Битовая глубина : 8 бит
Тип развёртки : Прогрессивная
Бит/(Пиксели*Кадры) : 0.471
Размер потока : 14,5 Гбайт (87%)
Язык : English
Default : Да
Forced : Да

Аудио #1
Идентификатор : 2
Формат : AC-3
Формат/Информация : Audio Coding 3
Расширение режима : CM (complete main)
Параметр Endianness формата : Big
Идентификатор кодека : A_AC3
Продолжительность : 1 ч. 28 м.
Вид битрейта : Постоянный
Битрейт : 640 Кбит/сек
Каналы : 6 каналов
Расположение каналов : Front: L C R, Side: L R, LFE
Частота : 48,0 КГц
Битовая глубина : 16 бит
Метод сжатия : С потерями
Размер потока : 405 Мбайт (2%)
Язык : Russian
Default : Да
Forced : Да

Аудио #2
Идентификатор : 3
Формат : AC-3
Формат/Информация : Audio Coding 3
Расширение режима : CM (complete main)
Параметр Endianness формата : Big
Идентификатор кодека : A_AC3
Продолжительность : 1 ч. 28 м.
Вид битрейта : Постоянный
Битрейт : 640 Кбит/сек
Каналы : 6 каналов
Расположение каналов : Front: L C R, Side: L R, LFE
Частота : 48,0 КГц
Битовая глубина : 16 бит
Метод сжатия : С потерями
Размер потока : 405 Мбайт (2%)
Язык : Ukrainian
Default : Нет
Forced : Нет

Аудио #3
Идентификатор : 4
Формат : DTS
Формат/Информация : Digital Theater Systems
Профиль формата : MA / Core
Идентификатор кодека : A_DTS
Продолжительность : 1 ч. 28 м.
Вид битрейта : Переменный
Битрейт : 1561 Кбит/сек / 1510 Кбит/сек
Каналы : 6 каналов
Расположение каналов : Front: L C R, Side: L R, LFE
Частота : 48,0 КГц
Битовая глубина : 16 бит
Метод сжатия : Без потерь / Lossy
Язык : English
Default : Нет
Forced : Нет

Текст #1
Идентификатор : 5
Формат : PGS
Идентификатор кодека : S_HDMV
1aa2ed3f693002b737b49ea5c06b1f439a44a34fДругой мир: Пробуждение / Underworld: Awakening (Манс Марлинд, Бьёрн Стейн, ужасы, фэнтези, боевик , 2012) [BD-Remux 1080р , Дублированный(рус., укр) + оригинал + субтитры] Другой мир: Пробуждение / Underworld: Awakening (Манс Марлинд, Бьёрн Стейн, ужасы, фэнтези, боевик , 2012) [BD-Remux 1080р , Дублированный(рус., укр) + оригинал + субтитры] " />

Аплоадер: Админ, дата: 18-04-2012, 19:29, торрент скачан: 359 раз

Понравилась раздача? Посмотрите эти:
  • Убежище / Shelter (Манс Марлинд, Бьёрн Стейн, Ужасы, 2010) [BDRip - AVC, Ду ...
  • Другой мир: Пробуждение / Underworld: Awakening (Монс Морлинд, Бьёрн Стейн, ...
  • Другой мир: Пробуждение / Underworld: Awakening (Монс Морлинд, Бьёрн Стейн, ...
  • Другой мир: Пробуждение / Underworld: Awakening (Монс Морлинд, Бьёрн Стейн, ...
  • Другой мир: Пробуждение / Underworld: Awakening (Монс Морлинд, Бьёрн Стейн, ...
  • Убежище / Shelter (Манс Марлинд, Бьёрн Стейн, ужасы, триллер, детектив, 200 ...
  • [3D] Другой мир: Пробуждение / Underworld: Awakening (Манс Марлинд , Ужасы ...
  • [3D] Другой мир: Пробуждение / Underworld: Awakening (Манс Марлинд , ужасы, ...
  • [3D] Другой мир: Пробуждение / Underworld: Awakening (Монс Морлинд, Бьёрн С ...
  • Запрещенный прием / Sucker Punch (Зак Снайдер, Фэнтези, 2011) [BDRemux 108 ...
  • Другой мир: Пробуждение / Underworld: Awakening (Монс Морлинд, Бьёрн Стейн, ...
  • Другой мир: Пробуждение / Underworld: Awakening (Монс Морлинд, Бьёрн Стейн, ...
  • Другой мир: Пробуждение / Underworld: Awakening (Монс Морлинд, Бьёрн Стейн, ...
  • Диктатор / The Dictator (Ларри Чарльз, Комедия, 2012) [BD-Remux 1080p, Дубл ...
  • Мрачные тени / Dark Shadows (Тим Бёртон, Фэнтези, мелодрама, комедия, 2012 ...
  • Белоснежка и охотник [Расширенная версия] / Snow White and the Huntsman [U ...
  • Супер Майк / Magic Mike (Стивен Содерберг, Драма, комедия, 2012) [BD-Remux ...
  • Другой мир: Пробуждение / Underworld: Awakening (Манс Марлинд, Бьёрн Стейн, ...
  • Другой мир: Пробуждение / Underworld: Awakening (Монс Морлинд / Mans Marlin ...
  • Другой мир: Пробуждение / Underworld: Awakening (Монс Морлинд / Mans Marlin ...
  • Другой мир: Пробуждение / Underworld: Awakening (Монс Морлинд, Бьёрн Стейн, ...
  • Другой мир: Пробуждение / Underworld: Awakening (Манс Марлинд, Бьёрн Стейн, ...
  • [3D] Другой мир: Пробуждение / Underworld: Awakening (Монс Морлинд, Бьёрн С ...
  • Другой мир: Пробуждение / Underworld: Awakening (Манс Марлинд, Бьёрн Стейн, ...
  • Другой мир: Пробуждение / Underworld: Awakening (Монс Морлинд, Бьёрн Стейн, ...
  • Информация
    Посетители, находящиеся в группе Гости, не могут оставлять комментарии к данной публикации.