вход на сайт

Имя пользователя :
Пароль :

Восстановление пароля Регистрация
Вышибала / Goon (Майкл Даус, комедия, 2011) [BDRip 1080p, Профессиональный (полное дублирование)]
Рейтинг:
(голосов: 1)



[img]{THEME}/images/logopost.png[/img]



Вышибала / Goon

Год выпуска: 2011
Страна: США , Канада
Производство: Don Carmody Productions, Caramel Film
Жанр: комедия, спорт

Режиссёр: Майкл Даус
В ролях: Шонн Уильям Скотт, Джей Барушель, Лив Шрайбер, Юджин Леви, Элисон Пилл, Марк-Андре Гронден, Ким Коутс, Николас Кэмпбелл, Ричард Кларкин, Джонатан Черри

Перевод: Профессиональный (полное дублирование)
Субтитры: Отсутствуют

Описание: Даг — простой вышибала, работающий в провинциальном баре. Однажды, ввязавшись в драку на хоккейном матче с одним из игроков, он попадает в поле зрения тренера команды мастеров. Ему срочно нужен игрок, который сможет защитить на льду ведущего нападающего клуба. Даг не умеет стоять на коньках, но этому можно научиться, зато в драке ему нет равных! У команды-главного конкурента есть свой тафгай, Росс «Босс-Мать-Его» Риа, от одного вида которого дрожит вся хоккейная лига. Дагу и Россу предстоит сойтись в одном матче. Наш герой, с помощью своего друга, делает головокружительную карьеру, сплотив вокруг себя всю команду, и завоевывает любовь самой лучшей девушки на свете. С точки зрения Дага, конечно.


IMDB: 7.10 (9 979)
КиноПоиск: 7.011 (4 296)

СЭМПЛ

Качество: BDRip 1080p
Продолжительность:01:30:57 час.


Формат: MKV
Видео кодек: x264
Аудио кодек: DTS
Видео: 1920x1040 (16:9), 24.000 fps, x264 ~12,5 mb/s, 0.261 bit/pixel
Аудио: 48 kHz, DTS, 6 channels, ~1510 kbps - Дублированный

MediaInfo ▼Полное имя : G:VideoVyshibala.2011.D.BDRip.1080p.mkv
Формат : Matroska
Версия формата : Version 2
Размер файла : 8,90 Гбайт
Продолжительность : 1 ч. 30 м.
Общий поток : 14,0 Мбит/сек
Дата кодирования : UTC 2012-04-11 16:36:23
Программа кодирования : mkvmerge v5.2.1 (A Far Off Place) built on Jan 2 2012 23:21:10
Библиотека кодирования : libebml v1.2.3 + libmatroska v1.3.0

Видео
Идентификатор : 1
Формат : AVC
Формат/Информация : Advanced Video Codec
Профиль формата : [email protected]
Параметр CABAC формата : Да
Параметр ReFrames формата : 4 кадра
Идентификатор кодека : V_MPEG4/ISO/AVC
Продолжительность : 1 ч. 30 м.
Битрейт : 12,5 Мбит/сек
Ширина : 1920 пикселей
Высота : 1040 пикселей
Соотношение сторон : 16:9
Частота кадров : 24,000 кадра/сек
Цветовое пространство : YUV
Субдискретизация насыщенности : 4:2:0
Битовая глубина : 8 бит
Тип развёртки : Прогрессивная
Бит/(Пиксели*Кадры) : 0.261
Размер потока : 7,76 Гбайт (87%)
Заголовок : Vyshibala.2011.D.BDRip.1080p
Библиотека кодирования : x264 core 120 r2146 bcd41db
Настройки программы : cabac=1 / ref=4 / deblock=1:0:0 / analyse=0x3:0x113 / me=umh / subme=9 / psy=1 / psy_rd=1.00:0.00 / mixed_ref=1 / me_range=48 / chroma_me=1 / trellis=2 / 8x8dct=1 / cqm=0 / deadzone=21,11 / fast_pskip=1 / chroma_qp_offset=-2 / threads=12 / sliced_threads=0 / nr=0 / decimate=1 / interlaced=0 / bluray_compat=0 / constrained_intra=0 / bframes=10 / b_pyramid=2 / b_adapt=1 / b_bias=0 / direct=1 / weightb=0 / open_gop=0 / weightp=2 / keyint=240 / keyint_min=24 / scenecut=40 / intra_refresh=0 / rc_lookahead=40 / rc=2pass / mbtree=1 / bitrate=12500 / ratetol=1.0 / qcomp=0.70 / qpmin=0 / qpmax=69 / qpstep=4 / cplxblur=20.0 / qblur=0.5 / ip_ratio=1.40 / aq=1:1.00
Язык : English

Аудио
Идентификатор : 2
Формат : DTS
Формат/Информация : Digital Theater Systems
Идентификатор кодека : A_DTS
Продолжительность : 1 ч. 30 м.
Вид битрейта : Постоянный
Битрейт : 1510 Кбит/сек
Каналы : 6 каналов
Расположение каналов : Front: L C R, Side: L R, LFE
Частота : 48,0 КГц
Битовая глубина : 16 бит
Метод сжатия : С потерями
Размер потока : 982 Мбайт (11%)
Заголовок : DTS.1510.Kbps.Russian
Язык : Russian

Меню
00:00:00.000 : en:Chapter 00
00:05:17.833 : en:Chapter 01
00:08:41.125 : en:Chapter 02
00:12:30.750 : en:Chapter 03
00:15:07.583 : en:Chapter 04
00:18:26.125 : en:Chapter 05
00:21:46.625 : en:Chapter 06
00:30:54.541 : en:Chapter 07
00:41:11.250 : en:Chapter 08
00:48:05.333 : en:Chapter 09
00
23c055c6907ffe56a790e4867e2b73a34947dba5Вышибала / Goon (Майкл Даус, комедия, 2011) [BDRip 1080p, Профессиональный (полное дублирование)] Вышибала / Goon (Майкл Даус, комедия, 2011) [BDRip 1080p, Профессиональный (полное дублирование)] " />

Аплоадер: Админ, дата: 14-04-2012, 00:05, торрент скачан: 359 раз

Понравилась раздача? Посмотрите эти:
  • Астрал на улице Арлетт / 388 Arletta Avenue (Рэндолл Коул, Триллер, 2011) [ ...
  • Вышибала / Goon (Майкл Даус / Michael Dowse, комедия, спорт, 2011) [BDRemux ...
  • Джек Ричер / Jack Reacher (Кристофер МакКуорри, Боевик,триллер, криминал, д ...
  • Убей ради меня / Kill for Me (Майкл Гринспен, триллер, драма, 2013) [DVDRip ...
  • Шапито-шоу: Любовь и дружба // Часть 1 (Сергей Лобан, комедия, 2011) [BDRip ...
  • Челюсти 3D / Shark Night 3D ( Дэвид Р. Эллис, ужасы, 2011) [BDRip-AVC, Проф ...
  • Полководцы / Tau ming chong (Питер Чан, Вэй мэн Йип, боевик, драма, военный ...
  • Вышибала / Goon (Майкл Даус, Комедия, 2011) [BDRip - AVC, Дубляж]
  • Вышибала / Goon (Майкл Даус, комедия, спорт, 2011) [BDRip-AVC, Профессионал ...
  • Вышибала / Goon (Майкл Даус, Комедия, 2011) [BDRip - AVC, Дубляж]
  • Тормоз / Brake (Гейб Торрес, триллер, криминал, 2011) [HDRip-AVC, Профессио ...
  • Облачный атлас / Cloud Atlas (Лана Вачовски, Том Тыквер, Энди Вачовски, фан ...
  • Рейдер (Всеволод Аравин, драма, криминал, 2011) [BDRip 720p, оригинал]
  • Вышибала / Goon (Майкл Даус, комедия, спорт, 2011) [BDRip 720p, Профессиона ...
  • Вышибала / Goon (Майкл Даус, комедия, спорт, 2011) [Blu-ray disc 1080p, Про ...
  • Вышибала / Goon (Майкл Даус,комедия, 2011) [DVD9, Профессиональный (полное ...
  • Вышибала / Goon (Майкл Даус, комедия, спорт, 2011г) [320x240] [HDRip,Профес ...
  • Вышибала / Goon (Майкл Даус,комедия, спорт, 2011) [BDRip, Профессиональный ...
  • Вышибала / Goon (Майкл Даус,комедия, спорт, 2011) [HDRip, Профессиональный ...
  • [Phone, iPod] Вышибала / Goon (Майкл Даус, комедия, спорт, 2011г) [480x320] ...
  • Информация
    Посетители, находящиеся в группе Гости, не могут оставлять комментарии к данной публикации.