вход на сайт

Имя пользователя :
Пароль :

Восстановление пароля Регистрация
Искатели могил / Grave Encounters (Bишec Брaзepc / Thе Viсiоus Вrоthеrs, ужасы, триллер, 2010) [BDRip 720p, Профессиональный (Многоголосый) + Оригинал, субтитры]
Рейтинг:
(голосов: 1)



[img]{THEME}/images/logopost.png[/img]



Искатели могил / Grave Encounters
«В марте 2003 года операторы реалити-шоу снимали сюжет в заброшенной психиатрической больнице, они искали доказательства существования жизни после смерти... и они нашли их.»
Год выпуска: 2010
Страна: Канада
Производство: Digital Interference Productions, Twin Engine Films
Жанр: Ужасы, триллер

Режиссёр: Bишec Брaзepc / Thе Viсiоus Вrоthеrs
В главных ролях: Шoн Рoджерсoн, Мeрвин Мoндeсер, Эшли Грызкo, МакКeнзи Грeй, Хуaн Ридингeр, Aртур Кoрбeр, Мишeль Кaмминс, Луиc Хавьeр, Шoун МакДoнальд

Перевод: Профессиональный (Многоголосый) + Оригинал
Субтитры:Русские, украинские

Описание:
Участники телевизионного шоу охотников за привидениями «Иcкaтeли» во главе с Лэнсoм Прэстoном соглашаются провести ночь в психиатрической лечебнице, о которой давно ходят жуткие легенды. Запертые на ночь в большом здании больницы «искатели» быстро обнаружили, что теперь бороться с призраками придется всерьез, а не понарошку, так что дожить до утра у них нет никаких шансов...


IMDB: 6.10 (6 743)КиноПоиск: 5.920(1 756)

Качество: BDRip 720p
Продолжительность: 01:44:09 час.

Формат: MKV
Видео кодек: AVC
Аудио кодек: AC3, DTS
Видео:1280x720 (16:9), 7 816 Kbps, 24 fps, 0.353 Bits/Pixel
Аудио #1: Russian; AC3; 384 Kbps; CBR; 6 ch; Многоголосый, R5
Аудио #2: English; DTS; 1509 Kbps; CBR; 6 ch
"MediaInfo" ▼TextGeneral
Unique ID : 233462056862952047482137616758829093037 (0xAFA328182FCA7407927BCCE97ACE10AD)
Complete name : Grave.Encounters.2011.720p.BluRay.Rus.Eng.HDCLUB-Skazhutin.mkv
Format : Matroska
Format version : Version 2
File size : 6.47 GiB
Duration : 1h 33mn
Overall bit rate : 9 906 Kbps
Movie name : Grave Encounters (2011) - Release for HDCLUB by Skazhutin
Encoded date : UTC 2012-04-03 10:38:58
Writing application : mkvmerge v5.4.0 (Piper) built on Mar 10 2012 13:34:39
Writing library : libebml v1.2.3 + libmatroska v1.3.0
Attachment : Yes / Yes

Video
ID : 1
Format : AVC
Format/Info : Advanced Video Codec
Format profile : [email protected]
Format settings, CABAC : Yes
Format settings, ReFrames : 8 frames
Codec ID : V_MPEG4/ISO/AVC
Duration : 1h 33mn
Bit rate : 7 816 Kbps
Width : 1 280 pixels
Height : 720 pixels
Display aspect ratio : 16:9
Frame rate : 24.000 fps
Color space : YUV
Chroma subsampling : 4:2:0
Bit depth : 8 bits
Scan type : Progressive
Bits/(Pixel*Frame) : 0.353
Stream size : 5.11 GiB (79%)
Title : Release for HDCLUB
Writing library : x264 core 122 r2184kMod 5c85e0a
Encoding settings : cabac=1 / ref=8 / deblock=1:-3:-2 / analyse=0x3:0x113 / me=umh / subme=11 / psy=1 / fade_compensate=0.00 / psy_rd=1.10:0.00 / mixed_ref=1 / me_range=48 / chroma_me=1 / trellis=2 / 8x8dct=1 / cqm=0 / deadzone=21,11 / fast_pskip=1 / chroma_qp_offset=-2 / threads=12 / sliced_threads=0 / nr=0 / decimate=1 / interlaced=0 / bluray_compat=0 / constrained_intra=0 / bframes=16 / b_pyramid=2 / b_adapt=2 / b_bias=0 / direct=1 / weightb=1 / open_gop=0 / weightp=2 / keyint=250 / keyint_min=23 / scenecut=40 / intra_refresh=0 / rc_lookahead=40 / rc=crf / mbtree=0 / crf=18.0000 / qcomp=0.65 / qpmin=0 / qpmax=69 / qpstep=4 / vbv_maxrate=50000 / vbv_bufsize=62500 / crf_max=0.0 / nal_hrd=none / ip_ratio=1.40 / pb_ratio=1.30 / aq=3:0.90
Language : English
Default : Yes
Forced : No
Matrix coefficients : BT.709-5, BT.1361, IEC 61966-2-4 709, SMPTE RP177

Audio #1
ID : 2
Format : AC-3
Format/Info : Audio Coding 3
Mode extension : CM (complete main)
Codec ID : A_AC3
Duration : 1h 33mn
Bit rate mode : Constant
Bit rate : 384 Kbps
Channel(s) : 6 channels
Channel positions : Front: L C R, Side: L R, LFE
Sampling rate : 48.0 KHz
Bit depth : 16 bits
Compression mode : Lossy
Stream size : 257 MiB (4%)
Title : AC3 5.1 @ 384 kbps - Многоголосый, R5
Language : Russian
Default : Yes
Forced : No

Audio #2
ID : 3
Format : DTS
Format/Info : Digital Theater Systems
Codec ID : A_DTS
Duration : 1h 33mn
Bit rate mode : Constant
B
c27e79498649bf8d976c99704b1b0c025776e8dcИскатели могил / Grave Encounters (Bишec Брaзepc / Thе Viсiоus Вrоthеrs, ужасы, триллер, 2010) [BDRip 720p, Профессиональный (Многоголосый) + Оригинал, субтитры] Искатели могил / Grave Encounters (Bишec Брaзepc / Thе Viсiоus Вrоthеrs, ужасы, триллер, 2010) [BDRip 720p, Профессиональный (Многоголосый) + Оригинал, субтитры] " />

Аплоадер: Админ, дата: 10-04-2012, 17:27, торрент скачан: 359 раз

Понравилась раздача? Посмотрите эти:
  • Смерть на похоронах / Death at a Funeral (Нил ЛаБут, комедия, 2010) [BDRip ...
  • Искатели могил 2 / Grave Encounters 2 (Джон Поликуин, Ужасы, мистика, 2012) ...
  • Искатели могил 2 / Grave Encounters 2 (Джон Поликвин, ужасы, 2012) [HDRip, ...
  • [iPhone, iPod]Искатели могил 2 / Grave Encounters 2 (Джон Поликвин, Ужасы, ...
  • Искатели могил 2 / Grave Encounters 2 (Джон Поликуин, ужасы, 2012) [HDRip-A ...
  • Конец света / Fin (Хорхе Торрегросса, триллер, 2012) [BDRip 720p, Профессио ...
  • Шелуха / Husk (Бретт Симмонс, ужасы, триллер, 2011) [BDRip 720p, Профессион ...
  • Военные Игры / War Games: At The End Of The Day ( Козимо Алема, триллер, у ...
  • Мартовские иды / The Ides of March (Джордж Клуни / George Clooney, драма, 2 ...
  • Искатели могил / Grave Encounters (Вишес Бразерс, Ужасы, 2011) [HDRip - AVC ...
  • Похищенная / A Lonely Place to Die (Джулиан Джилби, триллер, криминал, прик ...
  • Палата / The Ward (Джон Карпентер , ужасы, триллер, 2010) [BDRip 720p, Пр ...
  • Семь футов / Seven Below (Кевин Каррауэй, Ужасы, триллер, 2012) [BDRip 720p ...
  • BBC: Большой Барьерный риф (с 1 по 3 из 3) / Great Barrier Reef (Джеймс Бр ...
  • Судный день / The Day (Дуглас Арниокоски, Фантастика, триллер, драма, 2011) ...
  • Коллекционер 2 / The Collection (Маркус Данстэн, ужасы, боевик, триллер, 20 ...
  • [ENG] Искатели могил / Grave Encounters ( Вишес Бразерс, ужасы, 2011) [DVDS ...
  • Искатели могил / Grave Encounters (Вишес Бразерс, Ужасы, 2011) [HDRip, Проф ...
  • Искатели могил / Grave Encounters (Вишес Бразерс, ужасы, 2011) [BDRip, Проф ...
  • [Трейлер] Искатели могил 2 / Grave Encounters 2 (Джон Поликуин, ужасы) [HDR ...
  • Информация
    Посетители, находящиеся в группе Гости, не могут оставлять комментарии к данной публикации.