вход на сайт

Имя пользователя :
Пароль :

Восстановление пароля Регистрация
Ржевский против Наполеона (Марюс Вайсберг, Комедия, 2011) [BDRip 720p, Не требуется]
Рейтинг:
(голосов: 1)



[img]{THEME}/images/logopost.png[/img]



Ржевский против Наполеона

Год выпуска: 2011
Страна: Россия, Украина
Производство: Квартал-95, Леополис
Жанр: Комедия

Режиссёр: Марюс Вайсберг
В ролях: Павел Деревянко, Владимир Зеленский, Светлана Ходченкова, Михаил Ефремов, Марат Башаров, Евгений Кошевой, Жан-Клод Ван Дамм, Анна Семенович, Анфиса Чехова, Михаил Галустян

Перевод: Не требуется
Субтитры: нет
Описание: ▼Чтобы развеять скуку, Наполеон Бонапарт затеял мировую войну. Не пропуская ни одной юбки, он оказывается со своей армией у ворот Первопрестольной. Русские полководцы решают внедрить к нему неприступную красавицу, la femme fatal, чтобы отвлечь узурпатора от захватнической деятельности. Только какая настоящая женщина устоит перед обаянием этого великого бабника? Ненастоящая!!! В смысле — переодетый мужчина! И такой мужчина есть — поручик Ржевский…
3.107 (6 434)
2.80 (181)


Качество: BDRip 720p
Продолжительность: 01:23:08

Формат: MKV
Видео кодек: x264
Аудио кодек: DTS
Видео: 1280 x 536 (2.40:1), ~ 5260 Kbps avg, 23,976 fps, 0.320 bit/pixels
Аудио: 48.0 KHz, 6 channels, ~1510 Kbps avg
MediaInfo: ▼Общее
Полное имя : Rgevskiy.protiv.Napoleona.2011.O.BDRip.720p.IRONCLUB.mkv
Формат : Matroska
Версия формата : Version 2
Размер файла : 3,93 Гбайт
Продолжительность : 1 ч. 23 м.
Общий поток : 6771 Кбит/сек
Название фильма : Rip by Kim
Дата кодирования : UTC 2012-03-31 12:45:17
Программа кодирования : mkvmerge v5.3.0 (I could have danced) built on Feb 9 2012 10:38:07
Библиотека кодирования : libebml v1.2.3 + libmatroska v1.3.0

Видео
Идентификатор : 1
Формат : AVC
Формат/Информация : Advanced Video Codec
Профиль формата : [email protected]
Параметр CABAC формата : Да
Параметр ReFrames формата : 12 кадров
Идентификатор кодека : V_MPEG4/ISO/AVC
Продолжительность : 1 ч. 23 м.
Битрейт : 5260 Кбит/сек
Ширина : 1280 пикселей
Высота : 536 пикселей
Соотношение сторон : 2.40:1
Частота кадров : 23,976 кадра/сек
Цветовое пространство : YUV
Субдискретизация насыщенности : 4:2:0
Битовая глубина : 8 бит
Тип развёртки : Прогрессивная
Бит/(Пиксели*Кадры) : 0.320
Размер потока : 2,98 Гбайт (76%)
Заголовок : IRONCLUB.TV
Библиотека кодирования : x264 core 120 r2164 da19765
Настройки программы : cabac=1 / ref=12 / deblock=1:-3:-3 / analyse=0x3:0x133 / me=umh / subme=11 / psy=1 / psy_rd=0.90:0.10 / mixed_ref=1 / me_range=32 / chroma_me=1 / trellis=2 / 8x8dct=1 / cqm=0 / deadzone=21,11 / fast_pskip=0 / chroma_qp_offset=-3 / threads=12 / sliced_threads=0 / nr=0 / decimate=1 / interlaced=0 / bluray_compat=0 / constrained_intra=0 / bframes=7 / b_pyramid=2 / b_adapt=2 / b_bias=0 / direct=3 / weightb=1 / open_gop=0 / weightp=2 / keyint=240 / keyint_min=22 / scenecut=40 / intra_refresh=0 / rc_lookahead=40 / rc=2pass / mbtree=1 / bitrate=5260 / ratetol=1.0 / qcomp=0.60 / qpmin=0 / qpmax=69 / qpstep=4 / cplxblur=20.0 / qblur=0.5 / vbv_maxrate=50000 / vbv_bufsize=62500 / nal_hrd=none / ip_ratio=1.40 / aq=2:1.00
Язык : English
Default : Да
Forced : Нет

Аудио
Идентификатор : 2
Формат : DTS
Формат/Информация : Digital Theater Systems
Идентификатор кодека : A_DTS
Продолжительность : 1 ч. 23 м.
Вид битрейта : Постоянный
Битрейт : 1510 Кбит/сек
Каналы : 6 каналов
Расположение каналов : Front: L C R, Side: L R, LFE
Частота : 48,0 КГц
Битовая глубина : 24 бит
Метод сжатия : С потерями
Размер потока : 898 Мбайт (22%)
Язык : Russian
Default : Да
Forced : Нет

Меню
00:00:00.000 : en:00:00:00.000
00:04:33.315 : en:00:04:33.315
00:09:04.335 : en:00:09:04.335
00:13:34.105 : en:00:13:34.105
00:18:46.292 : en:00:18:46.292
00:22:49.577 : en:00:22:49.577
00:29:43.824 : en:00:29:43.824
00:35:33.298 : en:00:35:33.298
00:41:15.556 : en:00:41:15.556
00:46:40.923 : en:00:46:40.923
00:49:47.443 : en:00:49:47.443
00:58:23.375 : en:00:58:23.375
01:04:45.256 : en:01:04:45.256
01:09:20.782 : en:01:09:20.782
01:14:05.816 : en:01:14:05.816
8b60f4870cbd95a5037a26078d714e3fcb84abf6Ржевский против Наполеона (Марюс Вайсберг, Комедия, 2011) [BDRip 720p, Не требуется] Ржевский против Наполеона (Марюс Вайсберг, Комедия, 2011) [BDRip 720p, Не требуется] " />

Аплоадер: Админ, дата: 31-03-2012, 22:01, торрент скачан: 359 раз

Понравилась раздача? Посмотрите эти:
  • Джобс: Империя соблазна / jOBS (Джошуа Майкл Штерн, драма, биография, 2013) ...
  • Ошибка телохранителя / The Girl from the Naked Eye (Дэвид Рен, боевик, трил ...
  • Думай, как мужчина / Think Like a Man (Тим Стори, Мелодрама, комедия, 2012) ...
  • Ржевский против Наполеона (Марюс Вайсберг, комедия, 2011) [DVDRip-AVC, Не т ...
  • Ржевский против Наполеона(Марюс Вайсберг, комедия, 2012) [DVDRip-AVC, Не тр ...
  • Ржевский против Наполеона (Марюс Вайсберг, комедия, 2012) [BDRip-AVC, Не тр ...
  • Безумные мелодии: Кажется я видел котика / Looney Tunes: I Tawt I Taw а Pud ...
  • Скрат: Потерянный орех / Scrat: Gone Nutty (Карлос Салдана, короткометражка ...
  • [3D] Ржевский против Наполеона (Марюс Вайсберг, комедия, 2012) [BDRip1080p, ...
  • [3D] Ржевский против Наполеона 3D (Марюс Вайсберг, Комедия, 2012) [BDRip 10 ...
  • [3D] Ржевский против Наполеона 3D (Марюс Вайсберг, Комедия, 2012) [BDRip, Н ...
  • Заражение / Contagion (Стивен Содерберг, Фантастика, 2011) [BDRip 1080p, Пр ...
  • Переростки / The Inbetweeners (Бен Палмер / Ben Palmer, комедия, 2011) [BDR ...
  • Бедная богатая девочка / Young Adult (Джейсон Райтман, драма, комедия, 2011 ...
  • Дирижёр (Павел Лунгин, драма, 2012) [BDRip 720p, Не требуется]
  • Дети сексу не помеха / Friends with Kids (Дженнифер Уэстфелд, комедия, 2011 ...
  • Свадебный разгром / A Few Best Men (Стефан Эллиотт, Комедия, 2011) [BDRip 7 ...
  • Бульвар спасения / Salvation Boulevard (Джордж Рэтлифф, Боевик, триллер, др ...
  • Королевство полной луны / Moonrise Kingdom (Уэс Андерсон, Драма, комедия, 2 ...
  • Лоракс: Серенада / The Lorax: Serenade (Кайл Балда, мультфильм, комедия, му ...
  • Павшая империя / Hirokin (Алехо Мо-Сан, фантастика, боевик, драма, приключе ...
  • Ржевский против Наполеона (Марюс Вайсберг, комедия, 2012) [DVD9, Не требует ...
  • Ржевский против Наполеона(Марюс Вайсберг, комедия, 2012) [DVDRip, Не требуе ...
  • Ржевский против Наполеона (Марюс Вайсберг, комедия, 2012) [HDRip, Не требуе ...
  • Ржевский против Наполеона (Марюс Вайсберг, Комедия, 2012) [BDRip, Не требуе ...
  • Информация
    Посетители, находящиеся в группе Гости, не могут оставлять комментарии к данной публикации.