вход на сайт

Имя пользователя :
Пароль :

Восстановление пароля Регистрация
Зимняя кость / Winters Bone (Дебра Граник, триллер, драма, детектив, 2010) [BDRip 720p, Профессиональный (двухголосый) + оригинал]
Рейтинг:
(голосов: 1)



[img]{THEME}/images/logopost.png[/img]



Зимняя кость / Winters Bone

Год выпуска: 2010
Страна: США
Производство: Anonymous Content, Winters Bone Productions
Жанр: триллер, драма, детектив
Режиссёр: Дебра Граник
В ролях: Дженнифер Лоуренс, Джон Хоукс, Кевин Брезнахан, Дейл Дикки, Гаррет Диллахант, Шелли Ваггнер, Lauren Sweetser, Эшли Томпсон, Уильям Уайт, Кэйси Мак...
Перевод: Профессиональный (двухголосый) + оригинал
Субтитры: отсутствуют
Описание:
Главная героиня картины — девочка Ри из неблагополучной семьи; ее мать серьезно больна, а отец-наркоторговец сидит в тюрьме. В силу такого положения героиня и ее младшие брат и сестра еле-еле сводят концы с концами.
Вскоре Ри узнает об исчезновении недавно освободившегося отца, а местный шериф сообщает девушке, что если в ближайшее время тот не появится в суде и не заплатит взнос по закладной, то у нее и ее семьи отберут дом. Ри отправляется на поиски отца, который по слухам уже успел погибнуть. В попытках добиться своего девочке придется пройти через не самые благополучные социальные слои, в которых постоянно вертелся ее папаша.

Качество: BDRip 720p
Продолжительность: 01:40:12
Формат: MKV
Видео кодек: AVC
Аудио кодек: AC3, DTS
Формат видео: 1280x720p, (16:9), 23.976 fps, 4 724 Kbps, 0.214 bit/pixel
Формат аудио:
Аудио : Русский 48 kHz, AC3, 6 ch, 448.00 kbps
Аудио 2: Английский 48 kHz, DTS, 6 ch, 1510.00 kbps

MediaInfo ▼
Text
General
Complete name : Zimnyaja.kost.2010.P2.BDRip.720p.mkv
Format : Matroska
File size : 4.68 GiB
Duration : 1h 40mn
Overall bit rate : 6 684 Kbps
Movie name : avproh
Encoded date : UTC 2010-10-21 15:37:33
Writing application : mkvmerge v4.1.1 (Bouncin Back) сборка от Jul 3 2010 22:54:08
Writing library : libebml v1.0.0 + libmatroska v1.0.0

Video
ID : 1
Format : AVC
Format/Info : Advanced Video Codec
Format profile : [email protected]
Format settings, CABAC : Yes
Format settings, ReFrames : 8 frames
Codec ID : V_MPEG4/ISO/AVC
Duration : 1h 40mn
Bit rate : 4 724 Kbps
Width : 1 280 pixels
Height : 720 pixels
Display aspect ratio : 16:9
Frame rate : 23.976 fps
Color space : YUV
Chroma subsampling : 4:2:0
Bit depth : 8 bits
Scan type : Progressive
Bits/(Pixel*Frame) : 0.214
Stream size : 3.22 GiB (69%)
Title : Winters.Bone.2010.Bluray.720p.DTS.x264-CHD
Writing library : x264 core 84 r1416 fcf70c2
Encoding settings : cabac=1 / ref=8 / deblock=1:-3:-3 / analyse=0x3:0x113 / me=umh / subme=10 / psy=1 / psy_rd=1.0:0.1 / mixed_ref=1 / me_range=32 / chroma_me=1 / trellis=2 / 8x8dct=1 / cqm=2 / deadzone=21,11 / fast_pskip=0 / chroma_qp_offset=-2 / threads=6 / sliced_threads=0 / nr=0 / decimate=1 / mbaff=0 / constrained_intra=0 / bframes=6 / b_pyramid=2 / b_adapt=2 / b_bias=0 / direct=3 / wpredb=1 / wpredp=2 / keyint=250 / keyint_min=25 / scenecut=40 / intra_refresh=0 / rc_lookahead=40 / rc=2pass / mbtree=1 / bitrate=4724 / ratetol=1.0 / qcomp=0.60 / qpmin=10 / qpmax=51 / qpstep=4 / cplxblur=20.0 / qblur=0.5 / vbv_maxrate=50000 / vbv_bufsize=50000 / ip_ratio=1.40 / aq=1:0.80
Language : English

Audio #1
ID : 2
Format : AC-3
Format/Info : Audio Coding 3
Mode extension : CM (complete main)
Codec ID : A_AC3
Duration : 1h 40mn
Bit rate mode : Constant
Bit rate : 448 Kbps
Channel(s) : 6 channels
Channel positions : Front: L C R, Side: L R, LFE
Sampling rate : 48.0 KHz
Bit depth : 16 bits
Stream size : 321 MiB (7%)
Title : AC3 5.1 448 kbps
Language : Russian

Audio #2
ID : 3
Format : DTS
Format/Info : Digital Theater Systems
Codec ID : A_DTS
Duration : 1h 40mn
Bit rate mode : Constant
Bit rate : 1 510 Kbps
Channel(s) : 6 channels
Channel positions : Front: L C R, Side: L R, LFE
Sampling rate : 48.0 KHz
Bit depth : 24 bits
807063422e603526a1b2001bf451c38a3c74a31cЗимняя кость / Winters Bone (Дебра Граник, триллер, драма, детектив, 2010) [BDRip 720p, Профессиональный (двухголосый) + оригинал] Зимняя кость / Winters Bone (Дебра Граник, триллер, драма, детектив, 2010) [BDRip 720p, Профессиональный (двухголосый) + оригинал] " />

Аплоадер: Админ, дата: 11-03-2012, 10:44, торрент скачан: 359 раз

Понравилась раздача? Посмотрите эти:
  • Смерть на похоронах / Death at a Funeral (Нил ЛаБут, комедия, 2010) [BDRip ...
  • Зимняя кость / Winters Bone (Дебра Граник ,триллер, драма, детектив 2010) [ ...
  • Гость / The Caller (Мэттью Паркхилл, триллер, детектив, 2011) [BDRip 720p, ...
  • Зимняя кость / Winters Bone (Дебра Граник, Триллер, Драма, Детектив, 2010) ...
  • Честь дракона / Tom yum goong (Прачья Пинкаю, боевик, триллер, драма, крим ...
  • Водитель / The Driver (Уолтер Хилл, Боевик, триллер, драма, криминал, 1978) ...
  • Суррогат / The Sessions (Бен Луин, драма, 2012) [BDRip 720p, Профессиональн ...
  • Убить по расписанию / Ticking Clock (Эрни Барбараш, фантастика, боевик, три ...
  • Зимняя кость / Winters Bone (Дебра Граник ,триллер, драма, детектив 2010) ...
  • Зимняя кость / Winters Bone (Дебра Граник, триллер, 2010) [HDRip, Любительс ...
  • Город воров / The Town [Театральная версия / Theatrical Cut] (Бен Аффлек / ...
  • Зимняя кость / Winters Bone (Дебра Граник, триллер, драма, детектив, 2010) ...
  • Город воров [Театральная версия] / The Town [Theatrical cut] (Бен Аффлек, т ...
  • [3D] Panasonic Demo Disc 3D 2010-2011 [BDrip-AVC 1080p-720p][Оригинал][Anam ...
  • Исходный код / Source Code (Дункан Джонс, фантастика, боевик, триллер, 2011 ...
  • Дети шпионов 4D / Spy Kids: All the Time in the World in 4D (Роберт Родриге ...
  • Ларри Краун / Larry Crowne (Том Хэнкс, драма, мелодрама, комедия, 2011) [BD ...
  • Далеко-далеко / Far and Away (Рон Ховард, драма, мелодрама, приключения, ве ...
  • Дом грёз / Dream House (Джим Шеридан, триллер, драма, детектив, 2011) [BDRi ...
  • Китайский квартал / Chinatown (Роман Полански, Триллер, драма, криминал, де ...
  • Ворон / The Raven (Джеймс МакТиг, Триллер, детектив, 2012) [BDRip 720p, Дуб ...
  • Семь футов / Seven Below (Кевин Каррауэй, Ужасы, триллер, 2012) [BDRip 720p ...
  • Судный день / The Day (Дуглас Арниокоски, Фантастика, триллер, драма, 2011) ...
  • Патруль / End of Watch (Дэвид Эйр, Триллер, драма, криминал, 2012) [BDRip 7 ...
  • Mylene Farmer / Du Temps [2011, Pop, HDTVRip]
  • Информация
    Посетители, находящиеся в группе Гости, не могут оставлять комментарии к данной публикации.