вход на сайт

Имя пользователя :
Пароль :

Восстановление пароля Регистрация
Схватка / The Grey (Джо Карнахан, боевик, триллер, драма, приключения, 2012) [BDRip 1080p, Профессиональный (полное дублирование)]
Рейтинг:
(голосов: 1)



[img]{THEME}/images/logopost.png[/img]



Схватка / The Grey
«Live and Die on This Day»

Год выпуска: 2012 г.
Страна: США
Производство: Universal pictures
Жанр: Боевик, триллер, драма, приключения

Режиссёр: Джо Карнахан / Joe Carnahan
В ролях: Лиам Нисон, Дермот Малруни, Фрэнк Грилло, Джеймс Бэдж, Дэйл Джо Андерсон, Нонсо Анози, Даллас Робертс, Лариса Стадничук, Бен Брэй, Джеймс Битонти

Перевод: Профессиональный (полное дублирование)
Субтитры: Отсутствует

Описание:
На Аляске потерпел крушение самолет, и оставшиеся в живых пассажиры оказались в плену безлюдной снежной пустыни, где только стая волков скрашивает пейзаж. Люди хотят выжить любой ценой, и теперь им предстоит смертельная схватка…
Качество: BDRip 1080p
Продолжительность: 01:57:06 час.

Формат: MKV
Видео кодек: H264
Аудио кодек: DTS
Видео: 1920x816 (2.35:1), 23.976 fps, Advanced Video Codec ([email protected]) ~9203 kbps avg, 0.245 bit/pixel
Аудио: 48 kHz, Digital Theater Systems, 3/2 (L,C,R,l,r) + LFE ch, ~1510 kbps

Дата премьеры (мир): 26 января 2012
Дата премьеры (РФ): 26 января 2012, «UPI»

Media Info ▼
TextФормат : Matroska
Версия формата : Version 2
Размер файла : 8,76 Гбайт
Продолжительность : 1 ч. 57 м.
Общий поток : 10,7 Мбит/сек
Название фильма : Shvatka.D.BDRip.1080p.Uniongang.tv
Дата кодирования : UTC 2012-03-06 15:03:28
Программа кодирования : mkvmerge v5.2.1 (A Far Off Place) built on Jan 2 2012 23:21:10
Библиотека кодирования : libebml v1.2.3 + libmatroska v1.3.0

Видео
Идентификатор : 1
Формат : AVC
Формат/Информация : Advanced Video Codec
Профиль формата : [email protected]
Параметр CABAC формата : Да
Параметр ReFrames формата : 5 кадров
Идентификатор кодека : V_MPEG4/ISO/AVC
Продолжительность : 1 ч. 57 м.
Битрейт : 9203 Кбит/сек
Ширина : 1920 пикс.
Высота : 816 пикс.
Соотношение сторон : 2,35:1
Частота кадров : 23,976 кадр/сек
Цветовое пространство : YUV
Подвыборка цветности : 4:2:0
Битовая глубина : 8 бит
Тип развёртки : Прогрессивная
Бит/(Пиксели*Кадры) : 0.245
Размер потока : 7,35 Гбайт (84%)
Заголовок : Shvatka.D.BDRip.1080p.Uniongang.tv
Библиотека кодирования : x264 core 119 r2106 07efeb4
Настройки программы : cabac=1 / ref=5 / deblock=1:-3:-3 / analyse=0x3:0x113 / me=umh / subme=11 / psy=1 / psy_rd=1.10:0.10 / mixed_ref=1 / me_range=32 / chroma_me=1 / trellis=2 / 8x8dct=1 / cqm=0 / deadzone=21,11 / fast_pskip=0 / chroma_qp_offset=-3 / threads=6 / sliced_threads=0 / nr=0 / decimate=1 / interlaced=0 / bluray_compat=0 / constrained_intra=0 / bframes=5 / b_pyramid=2 / b_adapt=2 / b_bias=0 / direct=3 / weightb=1 / open_gop=0 / weightp=2 / keyint=250 / keyint_min=23 / scenecut=40 / intra_refresh=0 / rc_lookahead=40 / rc=2pass / mbtree=1 / bitrate=9203 / ratetol=1.0 / qcomp=0.60 / qpmin=0 / qpmax=69 / qpstep=4 / cplxblur=20.0 / qblur=0.5 / ip_ratio=1.40 / aq=1:1.00
Язык : English

Аудио
Идентификатор : 2
Формат : DTS
Формат/Информация : Digital Theater Systems
Идентификатор кодека : A_DTS
Продолжительность : 1 ч. 57 м.
Вид битрейта : Постоянный
Битрейт : 1510 Кбит/сек
Каналы : 6 каналов
Расположение каналов : Front: L C R, Side: L R, LFE
Частота : 48,0 КГц
Битовая глубина : 24 бит
Метод сжатия : С потерями
Размер потока : 1,23 Гбайт (14%)
Язык : Russian

Меню
00:00:00.000 : en:00:00:00.000
00:07:05.300 : en:00:07:05.300
00:14:08.389 : en:00:14:08.389
00:23:39.168 : en:00:23:39.168
00:29:16.296 : en:00:29:16.296
00:35:28.043 : en:00:35:28.043
00:43:28.105 : en:00:43:28.105
00:50:58.764 : en:00:50:58.764
00:59:02.205 : en:00:59:02.205
01:11:29.410 : en:01:11:29.410
01:18:02.720 : en:01:18:02.720
01:24:14.091 : en:01:24:14.091
01:33:31.689 : en:01:33:31.689
01:38:59.016 : en:01:38:59.016
01:49:12.337 : en:01:49:12.337





92f3185dfc0df74e06710fc014ceeb30b344906cСхватка / The Grey (Джо Карнахан, боевик, триллер, драма, приключения, 2012) [BDRip 1080p, Профессиональный (полное дублирование)] Схватка / The Grey (Джо Карнахан, боевик, триллер, драма, приключения, 2012) [BDRip 1080p, Профессиональный (полное дублирование)] " />

Аплоадер: Админ, дата: 10-03-2012, 19:29, торрент скачан: 359 раз

Понравилась раздача? Посмотрите эти:
  • Погнали! / Getaway (Кортни Соломон, боевик, криминал, 2013) [BDRip 1080p, П ...
  • Заклятие / The Conjuring (Джеймс Ван, ужасы, триллер, 2013) [BDRip 1080p, Д ...
  • Исходный код / Source Code (Дункан Джонс, фантастика, боевик, триллер, драм ...
  • Схватка / The Grey ( Джо Карнахан / Joe Carnahan, боевик, т риллер, дра ...
  • Возвращение героя / The Last Stand (Ким Чжи-ун, Боевик, триллер, криминал, ...
  • Драйв / Drive (Николас Виндинг Рёфн, боевик, триллер, драма, криминал, 2011 ...
  • Схватка / The Grey (Джо Карнахан, Боевик, 2012) [BDRip - AVC, Дубляж]
  • Схватка / The Grey (Джо Карнахан, боевик, триллер, драма, приключения, 2012 ...
  • Схватка / The Grey (Джо Карнахан, боевик, триллер, драма, приключения, 2011 ...
  • Заражение / Contagion (Стивен Содерберг, Фантастика, 2011) [BDRip 1080p, Пр ...
  • Переростки / The Inbetweeners (Бен Палмер / Ben Palmer, комедия, 2011) [BDR ...
  • Схватка / The Grey (Джо Карнахан, Боевик, 2012) [BDRip 720p, Профессиональн ...
  • Последняя любовь на Земле / Perfect Sense (Дэвид МакКензи, фантастика, драм ...
  • Стыд / Shame (Стив МакКуин, драма, 2011) [BDRip 1080p, полное дублирование, ...
  • Черное золото / Black Gold (Жан-Жак Анно, драма, 2011) [BDRip 1080p, Профес ...
  • Лето. Одноклассники. Любовь / LOL (Лиза Азуэлос, Драма, мелодрама, комедия, ...
  • Мстители / The Avengers (Джосс Уидон, фантастика, боевик, триллер, 2012) [B ...
  • Павшая империя / Hirokin (Алехо Мо-Сан, фантастика, боевик, драма, приключе ...
  • Схватка / The Grey (Джо Карнахан, Боевик, 2012) [Blu-ray disc 1080p, Профес ...
  • Схватка / The Grey (Джо Карнахан / Joe Carnahan) [2012, США, боевик, трилле ...
  • [iPhone, iPod]Схватка / The Grey (Джо Карнахан / Joe Carnahan) [2012, Боеви ...
  • Схватка / The Grey (Джо Карнахан, боевик, триллер, драма, 2012) [HDRip, Дуб ...
  • Схватка / The Grey (Джо Карнахан, боевик, триллер, 2012г) [320x240] [BDRip, ...
  • Схватка / The Grey (Джо Карнахан, Боевик, 2012) [BDRip, Профессиональный (п ...
  • Схватка / The Grey (Джо Карнахан, боевик, триллер, драма, приключения, 2012 ...
  • Информация
    Посетители, находящиеся в группе Гости, не могут оставлять комментарии к данной публикации.