вход на сайт

Имя пользователя :
Пароль :

Восстановление пароля Регистрация
Схватка / The Grey (Джо Карнахан, Боевик, 2012) [BDRip 720p, Профессиональный (полное дублирование)]
Рейтинг:
(голосов: 1)



[img]{THEME}/images/logopost.png[/img]



Схватка / The Grey

Год выпуска: 2012
Страна: США
Производство: 1984 Private Defense Contractors
Жанр: Боевик, триллер, драма, приключения

Режиссёр: Джо Карнахан
В ролях: Лиам Нисон, Фрэнк Грилло, Дермот Малруни, Даллас Робертс, Джо Андерсон, Нонсо Анози, Джеймс Бэдж Дэйл, Бен Брэй, Энн Опеншоу, Питер Гиргес

Перевод:Профессиональный (полное дублирование)
Субтитры: Отсутствуют

Описание: На Аляске потерпел крушение самолет, и оставшиеся в живых пассажиры оказались в плену безлюдной снежной пустыни, где только стая волков скрашивает пейзаж. Люди хотят выжить любой ценой, и теперь им предстоит смертельная схватка



IMDB: 7.50 (17 673)
КиноПоиск: 7.267 (3 773)

Качество:BDRip 720p
Продолжительность: 01:57:05 час.


Формат: MKV
Видео кодек: x264
Аудио кодек: DTS
Видео: 1280x544 (2.35:1), 23,976 fps, ~4 792 kbps, , 0.287 bits/pixel
Аудио: DTS; 48KHz; 6ch; 1510 kbps

Дата премьеры (мир): 26 января 2012
Дата премьеры (РФ): 26 января 2012, «UPI»

MediaInfo ▼Complete name : Z:The.Grey.2012.D.BDRip.720.mkv
Format : Matroska
Format version : Version 2
File size : 5.26 GiB
Duration : 1h 57mn
Overall bit rate : 6 430 Kbps
Movie name : The Grey (2012) - Release for IronClub.tv
Encoded date : UTC 2012-03-06 07:07:02
Writing application : mkvmerge v5.3.0 (I could have danced) built on Feb 9 2012 10:38:07
Writing library : libebml v1.2.3 + libmatroska v1.3.0

Video
ID : 1
Format : AVC
Format/Info : Advanced Video Codec
Format profile : [email protected]
Format settings, CABAC : Yes
Format settings, ReFrames : 12 frames
Codec ID : V_MPEG4/ISO/AVC
Duration : 1h 57mn
Bit rate : 4 792 Kbps
Width : 1 280 pixels
Height : 544 pixels
Display aspect ratio : 2.35:1
Frame rate : 23.976 fps
Color space : YUV
Chroma subsampling : 4:2:0
Bit depth : 8 bits
Scan type : Progressive
Bits/(Pixel*Frame) : 0.287
Stream size : 3.92 GiB (75%)
Title : The Grey (2012) - Release for IronClub.tv
Writing library : x264 core 116 r2074 2641b9e
Encoding settings : cabac=1 / ref=12 / deblock=1:-3:-3 / analyse=0x3:0x113 / me=umh / subme=10 / psy=1 / psy_rd=1.05:0.05 / mixed_ref=1 / me_range=48 / chroma_me=1 / trellis=2 / 8x8dct=1 / cqm=0 / deadzone=21,11 / fast_pskip=0 / chroma_qp_offset=-2 / threads=12 / sliced_threads=0 / nr=0 / decimate=1 / interlaced=0 / bluray_compat=0 / constrained_intra=0 / bframes=9 / b_pyramid=2 / b_adapt=2 / b_bias=0 / direct=3 / weightb=1 / open_gop=0 / weightp=2 / keyint=240 / keyint_min=22 / scenecut=40 / intra_refresh=0 / rc_lookahead=40 / rc=crf / mbtree=1 / crf=17.0 / qcomp=0.60 / qpmin=10 / qpmax=51 / qpstep=4 / vbv_maxrate=50000 / vbv_bufsize=62500 / crf_max=0.0 / nal_hrd=none / ip_ratio=1.40 / aq=1:1.00
Language : English
Default : Yes
Forced : Yes

Audio
ID : 2
Format : DTS
Format/Info : Digital Theater Systems
Codec ID : A_DTS
Duration : 1h 57mn
Bit rate mode : Constant
Bit rate : 1 510 Kbps
Channel(s) : 6 channels
Channel positions : Front: L C R, Side: L R, LFE
Sampling rate : 48.0 KHz
Bit depth : 24 bits
Compression mode : Lossy
Stream size : 1.23 GiB (23%)
Title : Russian: DTS, 1510 kb/s (6 ch)
Language : Russian
Default : Yes
Forced : Yes

Menu
00:00:00.000 : :Chapter 01
00:07:05.299 : :Chapter 02
00:14:08.389 : :Chapter 03
00:23:39.167 : :Chapter 04
00:29:16.296 : :Chapter 05
00:35:28.042 : :Chapter 06
00:43:28.105 : :Chapter 07
00:50:58.764 : :Chapter 08
00:59:02.205 : :Chapter 09
01:11:29.410 : :Chapter 10
01:18:02.719 : :Chapter 11
01:24:14.090 : :Chapter 12
01:33:31.689 : :Chapter 13
01:38:59.016 : :Chapter 14
01:49:12.337 : :Chapter 15

Log
x264 [info]: frame I:1021 Avg QP:14.09 size:105085
x264 [info]: frame P:37303 Avg QP:17.24 size: 39085
x264 [info]: frame B:130128 Avg QP:19.76 size: 21169
x264 [info]: consecutive B-frames: 3.7% 2.6% 6.7% 17.3% 14.1% 34.1% 8.4% 5.7% 4.5% 3.0%


81bce93c89e9d984f6cc46add872e4ba39da35acСхватка / The Grey (Джо Карнахан, Боевик, 2012) [BDRip 720p, Профессиональный (полное дублирование)] Схватка / The Grey (Джо Карнахан, Боевик, 2012) [BDRip 720p, Профессиональный (полное дублирование)] " />

Аплоадер: Админ, дата: 6-03-2012, 20:07, торрент скачан: 359 раз

Понравилась раздача? Посмотрите эти:
  • Схватка / The Grey ( Джо Карнахан / Joe Carnahan, боевик, т риллер, дра ...
  • Даю год / I Give It a Year (Дэн Мазер, Мелодрама, Комедия, 2013) [BDRip-AVC ...
  • О чём молчат девушки (Карен Оганесян, Комедия, 2013) [BDRip-AVC, Не требует ...
  • Схватка / The Grey (Джо Карнахан, Боевик, 2012) [BDRip - AVC, Дубляж]
  • Схватка / The Grey (Джо Карнахан, боевик, триллер, драма, приключения, 2012 ...
  • Жизнь прекрасна / La Vita è bella (Роберто Бениньи, Драма, мелодрама, комед ...
  • [3D] Шаг вперед 3D / Step Up 3D (Джон М. Чу, мелодрама, драма, музыка, 2010 ...
  • Секс по дружбе / Friends with Benefits (Уилл Глак, драма, мелодрама, комеди ...
  • Бриллиантовая рука (Леонид Гайдай, комедия, криминал, приключения, 1968) [B ...
  • Схватка / The Grey (Джо Карнахан, боевик, триллер, драма, приключения, 2012 ...
  • Запрещенная реальность (Константин Максимов, фантастика, боевик, 2009) [BDR ...
  • Выкрутасы (Леван Габриадзе, мелодрама, комедия, спорт, 2011) [ВDRip 720p, Н ...
  • Ю-571 / U-571 (Джонатан Мостоу, Боевик, 2000) [BDRip - AVC, Дубляж + Субтит ...
  • [3D] Шаг вперед / Step Up (Джон М. Чу, драма, мелодрама, музыка, 2010) [B ...
  • Собачье сердце (Владимир Бортко, фантастика, драма, комедия, 1988) [BDRip 1 ...
  • Схватка / The Grey (Джо Карнахан, Боевик, 2012) [Blu-ray disc 1080p, Профес ...
  • [iPhone, iPod]Схватка / The Grey (Джо Карнахан / Joe Carnahan) [2012, Боеви ...
  • Схватка / The Grey (Джо Карнахан, боевик, триллер, драма, 2012) [HDRip, Дуб ...
  • Схватка / The Grey (Джо Карнахан, боевик, триллер, 2012г) [320x240] [BDRip, ...
  • Схватка / The Grey (Джо Карнахан, Боевик, 2012) [BDRip, Профессиональный (п ...
  • Информация
    Посетители, находящиеся в группе Гости, не могут оставлять комментарии к данной публикации.