вход на сайт

Имя пользователя :
Пароль :

Восстановление пароля Регистрация
Девушка с татуировкой дракона / The Girl with the Dragon Tattoo (Дэвид Финчер, детектив, драма, криминал, триллер, 2011) [BDRip 720p, Профессиональный (полное дублирование) + Профессиональный (полное дублирование) [UKR] + Оригинал + Sub]
Рейтинг:
(голосов: 1)



[img]{THEME}/images/logopost.png[/img]



Девушка с татуировкой дракона / The Girl with the Dragon Tattoo
«Shes coming.»

Год выпуска: 2011
Страна: США, Германия,Швеция,Великобритания
Производство: 21 Laps Entertainment, Angry Films, DreamWorks SKG, ImageMovers, Reliance Entertainment, Touchstone Pictures
Жанр: Детектив, Драма, Криминал, Триллер

Режиссёр: Дэвид Финчер
В ролях: Дэниэл Крэйг, Руни Мара, Кристофер Пламмер, Стеллан Скарсгард, Стивен Беркофф, Робин Райт, Йорик ван Вагенинген, Джоэли Ричардсон, Джеральдин Джеймс, Горан Вишнич

Перевод: Профессиональный (полное дублирование) + Профессиональный (полное дублирование) [UKR] + Оригинал
Субтитры: Русские, английские

Описание: Сорок лет назад Харриет Вангер бесследно пропала на острове, принадлежащем могущественному клану Вангер. Ее тело так и не было найдено, но ее дядя убежден, что это убийство и что убийца является членом его собственной, тесно сплоченной и неблагополучной семьи. Он нанимает опального журналиста Микаэля Блумквиста и татуированную хакершу Лисбет Саландер для проведения расследования.



Качество: BDRip 720p [HDChina]
Продолжительность: 02:38:08

Формат: MKV
Видео кодек: AVC
Аудио кодек: AC3, DTS
Видео: 1280x532 (2,40:1), 23,976 fps, XviD ~5109 kbps avg, 0.313 bit/pixel
Аудио 1: 48 kHz, AC3, 6 ch, ~384 kbps - Профессиональный (полное дублирование)
Аудио 2: 48 kHz, AC3, 6 ch, ~384 kbps - Профессиональный (полное дублирование) [UKR]
Аудио 3: 48 kHz, DTS, 6 ch, ~1510 kbps - Оригинал

Дата премьеры (мир): 12 декабря 2011
Дата премьеры (РФ): 2 января 2012, «WDSSPR»

MediaInfo ▼Общее
Полное имя : D:Новая папкаDevushka.s.tatuirovkoi.drakona.2011.D.BDRip.720p.[uniongang.tv].mkv
Формат : Matroska
Размер файла : 8,16 Гбайт
Продолжительность : 2 ч. 38 м.
Общий поток : 7389 Кбит/сек
Дата кодирования : UTC 2012-03-02 16:17:29
Программа кодирования : mkvmerge v5.2.0 (I cant explain) built on Dec 18 2011 18:12:03
Библиотека кодирования : libebml v1.2.3 + libmatroska v1.3.0

Видео
Идентификатор : 1
Формат : AVC
Формат/Информация : Advanced Video Codec
Профиль формата : [email protected]
Параметр CABAC формата : Да
Параметр ReFrames формата : 12 кадры
Параметры GOP формата : M=4, N=48
Идентификатор кодека : V_MPEG4/ISO/AVC
Продолжительность : 2 ч. 38 м.
Битрейт : 5109 Кбит/сек
Ширина : 1280 пикс.
Высота : 532 пикс.
Соотношение сторон : 2,40:1
Частота кадров : 23,976 кадр/сек
Цветовое пространство : YUV
Подвыборка цветности : 4:2:0
Битовая глубина : 8 бит
Тип развёртки : Прогрессивная
Бит/(Пиксели*Кадры) : 0.313
Размер потока : 5,48 Гбайт (67%)
Библиотека кодирования : x264 core 120 r2164 da19765
Настройки программы : cabac=1 / ref=12 / deblock=1:-3:-3 / analyse=0x3:0x133 / me=umh / subme=10 / psy=1 / psy_rd=1.00:0.00 / mixed_ref=1 / me_range=48 / chroma_me=1 / trellis=2 / 8x8dct=1 / cqm=0 / deadzone=21,11 / fast_pskip=0 / chroma_qp_offset=-2 / threads=12 / sliced_threads=0 / nr=0 / decimate=0 / interlaced=0 / bluray_compat=0 / constrained_intra=0 / bframes=8 / b_pyramid=2 / b_adapt=2 / b_bias=0 / direct=3 / weightb=1 / open_gop=0 / weightp=2 / keyint=240 / keyint_min=24 / scenecut=40 / intra_refresh=0 / rc=2pass / mbtree=0 / bitrate=5109 / ratetol=1.0 / qcomp=0.70 / qpmin=0 / qpmax=69 / qpstep=4 / cplxblur=20.0 / qblur=0.5 / ip_ratio=1.40 / pb_ratio=1.25 / aq=1:1.10
Язык : English

Аудио #1
Идентификатор : 2
Формат : AC-3
Формат/Информация : Audio Coding 3
Расширение режима : CM (complete main)
Идентификатор кодека : A_AC3
Продолжительность : 2 ч. 38 м.
Вид битрейта : Постоянный
Битрейт : 384 Кбит/сек
Канал(ы) : 6 канала(ов)
Расположение каналов : Front: L C R, Side: L R, LFE
Частота : 48,0 КГц
Битовая глубина : 16 бит
Метод сжатия : С потерями
Размер потока : 434 Мбайт (5%)
Язык : Russian

Аудио #2
Идентификатор : 3
Формат : AC-3
Формат/Информация : Audio Coding 3
Расширение режима : CM (complete main)
65a4b3db80e9e24abf93df81583bd8deff8c452cДевушка с татуировкой дракона / The Girl with the Dragon Tattoo (Дэвид Финчер, детектив, драма, криминал, триллер, 2011) [BDRip 720p, Профессиональный (полное дублирование) + Профессиональный (полное дублирование) [UKR] + Оригинал + Sub] Девушка с татуировкой дракона / The Girl with the Dragon Tattoo (Дэвид Финчер, детектив, драма, криминал, триллер, 2011) [BDRip 720p, Профессиональный (полное дублирование) + Профессиональный (полное дублирование) [UKR] + Оригинал + Sub] " />

Аплоадер: Админ, дата: 3-03-2012, 06:53, торрент скачан: 359 раз

Понравилась раздача? Посмотрите эти:
  • Лавлэйс / Lovelace (Роб Эпштейн, Джеффри Фридман, драма, биография, 2013) [ ...
  • Даю год / I Give It a Year (Дэн Мазер, мелодрама, комедия, 2012) [BDRip-AVC ...
  • Паркер / Parker (Тейлор Хэкфорд, Боевик, триллер, криминал, 2013) [BDRip-AV ...
  • Линкольн / Lincoln (Стивен Спилберг, драма, военный, биография, история, 20 ...
  • Девушка с татуировкой дракона / The Girl with the Dragon Tattoo (Дэвид Финч ...
  • Ошибка телохранителя / The Girl from the Naked Eye (Дэвид Рен, боевик, трил ...
  • Челюсти 3D / Shark Night 3D ( Дэвид Р. Эллис, ужасы, 2011) [BDRip-AVC, Проф ...
  • Драйв / Drive (Николас Виндинг Рёфн, боевик, триллер, драма, криминал, 2011 ...
  • Профессионал / Killer Elite (Гэри МакКендри, боевик, 2011) [BDRip-AVC, Проф ...
  • Дьявол / Devil (Джон Эрик Даудл / John Erick Dowdle,ужасы, триллер, детекти ...
  • Девушка с татуировкой дракона / The Girl with the Dragon Tattoo (Дэвид Финч ...
  • Девушка с татуировкой дракона / The Girl with the Dragon Tattoo (Дэвид Финч ...
  • Девушка с татуировкой дракона / The Girl with the Dragon Tattoo (Дэвид Финч ...
  • Девушка с татуировкой дракона / The Girl with the Dragon Tattoo (Дэвид Финч ...
  • Девушка с татуировкой дракона / The Girl with the Dragon Tattoo (Дэвид Финч ...
  • Девушка с татуировкой дракона / The Girl with the Dragon Tattoo (Дэвид Финч ...
  • Девушка с татуировкой дракона / The Girl with the Dragon Tattoo (Дэвид Финч ...
  • История игрушек: Гавайские каникулы / Toy Story: Hawaiian Vacation (Гари ...
  • Переростки / The Inbetweeners (Бен Палмер / Ben Palmer, комедия, 2011) [BDR ...
  • Девушка с татуировкой дракона / The Girl with the Dragon Tattoo (Дэвид Финч ...
  • Павшая империя / Hirokin (Алехо Мо-Сан, фантастика, боевик, драма, приключе ...
  • Петля времени / Looper (Райан Джонсон, Фантастика, боевик, триллер, кримина ...
  • Девушка с татуировкой дракона / The Girl with the Dragon Tattoo (Дэвид Финч ...
  • [iPhone, iPod.] Девушка с татуировкой дракона / The Girl with the Dragon Ta ...
  • Девушка с татуировкой дракона / The Girl with the Dragon Tattoo (Дэвид Финч ...
  • Информация
    Посетители, находящиеся в группе Гости, не могут оставлять комментарии к данной публикации.