вход на сайт

Имя пользователя :
Пароль :

Восстановление пароля Регистрация
Переростки / The Inbetweeners (Бен Палмер / Ben Palmer, комедия, 2011) [BDRip 720p, Профессиональный (полное дублирование)]
Рейтинг:
(голосов: 1)



[img]{THEME}/images/logopost.png[/img]



Переростки / The Inbetweeners

Год выпуска: 2011
Страна: Великобритания
Производство: Bwark Productions
Жанр: комедия

Режиссёр: Бен Палмер
В ролях: Саймон Бёрд, Джеймс Баккли, Блейк Харрисон, Джо Томас, Лаура Хэддок, Эмили Хэд, Тамла Кари, Джессика Кнеппет, Лидия Роуз Бьюли, Тео Барклем-Биггз и другие.

Перевод: Профессиональный (полное дублирование)
Субтитры: Отсутствуют

Описание: Устав от своих проблем, четверо восемнадцатилетних приятелей подростков с юга Англии отправляются на двухнедельный отдых-мальчишник в Грецию.



IMDB: 7.00 (19 892)
КиноПоиск: 6.028 (1 188)

Качество: BDRip 720p
Продолжительность: 01:36:57 час.


Формат: MKV
Видео кодек: x264
Аудио кодек: DTS
Видео: 1280x688 (1,860), 23,976 fps, x264 ~6 753 kbps avg, 0.320 bit/pixel
Аудио: 48 kHz, DTS-HD MA, 6 ch, ~1510kbps avg

Дата премьеры (мир): 17 августа 2011
Дата премьеры (РФ): 1 декабря 2011, «Каскад»

MediaInfo ▼Общее
Полное имя : The.Inbetweeners.Movie.2011.BDRip.720p.x264.dts.rus.IRONCLUB.mkv
Формат : Matroska
Версия формата : Version 2
Размер файла : 5,60 Гбайт
Продолжительность : 1 ч. 36 м.
Общий поток : 8263 Кбит/сек
Название фильма : Rip by Kim
Дата кодирования : UTC 2012-02-29 05:17:32
Программа кодирования : mkvmerge v5.3.0 (I could have danced) built on Feb 9 2012 10:38:07
Библиотека кодирования : libebml v1.2.3 + libmatroska v1.3.0

Видео
Идентификатор : 1
Формат : AVC
Формат/Информация : Advanced Video Codec
Профиль формата : [email protected]
Параметр CABAC формата : Да
Параметр ReFrames формата : 9 кадров
Идентификатор кодека : V_MPEG4/ISO/AVC
Продолжительность : 1 ч. 36 м.
Битрейт : 6753 Кбит/сек
Ширина : 1280 пикселей
Высота : 688 пикселей
Соотношение сторон : 1,860
Частота кадров : 23,976 кадра/сек
Цветовое пространство : YUV
Субдискретизация насыщенности : 4:2:0
Битовая глубина : 8 бит
Тип развёртки : Прогрессивная
Бит/(Пиксели*Кадры) : 0.320
Размер потока : 4,46 Гбайт (80%)
Заголовок : -=IRONCLUB=-
Библиотека кодирования : x264 core 120 r2164 da19765
Настройки программы : cabac=1 / ref=9 / deblock=1:-3:-3 / analyse=0x3:0x133 / me=umh / subme=11 / psy=1 / psy_rd=0.85:0.10 / mixed_ref=1 / me_range=32 / chroma_me=1 / trellis=2 / 8x8dct=1 / cqm=0 / deadzone=21,11 / fast_pskip=0 / chroma_qp_offset=-3 / threads=12 / sliced_threads=0 / nr=0 / decimate=1 / interlaced=0 / bluray_compat=0 / constrained_intra=0 / bframes=7 / b_pyramid=2 / b_adapt=2 / b_bias=0 / direct=3 / weightb=1 / open_gop=0 / weightp=2 / keyint=240 / keyint_min=22 / scenecut=40 / intra_refresh=0 / rc_lookahead=40 / rc=2pass / mbtree=1 / bitrate=6753 / ratetol=1.0 / qcomp=0.60 / qpmin=0 / qpmax=69 / qpstep=4 / cplxblur=20.0 / qblur=0.5 / vbv_maxrate=50000 / vbv_bufsize=62500 / nal_hrd=none / ip_ratio=1.40 / aq=2:1.00
Язык : English
Default : Да
Forced : Нет

Аудио
Идентификатор : 2
Формат : DTS
Формат/Информация : Digital Theater Systems
Идентификатор кодека : A_DTS
Продолжительность : 1 ч. 36 м.
Вид битрейта : Постоянный
Битрейт : 1510 Кбит/сек
Каналы : 6 каналов
Расположение каналов : Front: L C R, Side: L R, LFE
Частота : 48,0 КГц
Битовая глубина : 24 бит
Метод сжатия : С потерями
Размер потока : 1,02 Гбайт (18%)
Язык : Russian
Default : Да
Forced : Нет

Меню
00:00:00.000 : en:00:00:00.000
00:06:01.069 : en:00:06:01.069
00:09:43.792 : en:00:09:43.792
00:16:28.404 : en:00:16:28.404
00:25:09.133 : en:00:25:09.133
00:34:11.341 : en:00:34:11.341
00:39:38.501 : en:00:39:38.501
00:46:04.887 : en:00:46:04.887
00:52:30.773 : en:00:52:30.773
00:59:48.543 : en:00:59:48.543
01:07:20.245 : en:01:07:20.245
01:13:25.568 : en:01:13:25.568
01:18:05.973 : en:01:18:05.973
01:24:52.045 : en:01:24:52.045
01:32:14.904 : en:01:32:14.904





4fe0fe8f695b20b1aa3148e879b72d1508632891Переростки / The Inbetweeners (Бен Палмер / Ben Palmer, комедия, 2011) [BDRip 720p, Профессиональный (полное дублирование)] Переростки / The Inbetweeners (Бен Палмер / Ben Palmer, комедия, 2011) [BDRip 720p, Профессиональный (полное дублирование)] " />

Аплоадер: Админ, дата: 29-02-2012, 17:17, торрент скачан: 359 раз

Понравилась раздача? Посмотрите эти:
  • Лавлэйс / Lovelace (Роб Эпштейн, Джеффри Фридман, драма, биография, 2013) [ ...
  • Даю год / I Give It a Year (Дэн Мазер, мелодрама, комедия, 2012) [BDRip-AVC ...
  • Холостячки / Bachelorette (Лесли Хэдланд, комедия, мелодрама, 2012) [BDRip- ...
  • Я тоже хочу (Алексей Балабанов, Драма, криминал, 2012) [BDRip 720p, Не треб ...
  • Ошибка телохранителя / The Girl from the Naked Eye (Дэвид Рен, боевик, трил ...
  • Челюсти 3D / Shark Night 3D ( Дэвид Р. Эллис, ужасы, 2011) [BDRip-AVC, Проф ...
  • Переростки / The Inbetweeners (Бен Палмер, Комедия, 2011) [BDRip-AVC, Профе ...
  • Переростки / The Inbetweeners (Бен Палмер / Ben Palmer, комедия, 2011) [BD ...
  • Монстр в Париже / Un monstre à Paris (Бибо Бержерон, мультфильм, фэнтези, к ...
  • Девушка с татуировкой дракона / The Girl with the Dragon Tattoo (Дэвид Финч ...
  • Схватка / The Grey (Джо Карнахан, боевик, триллер, драма, приключения, 2012 ...
  • Ржевский против Наполеона (Марюс Вайсберг, Комедия, 2011) [BDRip 720p, Не т ...
  • Стыд / Shame (Стив МакКуин, драма, 2011) [BDRip 1080p, полное дублирование, ...
  • Бедная богатая девочка / Young Adult (Джейсон Райтман, драма, комедия, 2011 ...
  • Дирижёр (Павел Лунгин, драма, 2012) [BDRip 720p, Не требуется]
  • Дети сексу не помеха / Friends with Kids (Дженнифер Уэстфелд, комедия, 2011 ...
  • Свадебный разгром / A Few Best Men (Стефан Эллиотт, Комедия, 2011) [BDRip 7 ...
  • Бульвар спасения / Salvation Boulevard (Джордж Рэтлифф, Боевик, триллер, др ...
  • Черное золото / Black Gold (Жан-Жак Анно, драма, 2011) [BDRip 1080p, Профес ...
  • Королевство полной луны / Moonrise Kingdom (Уэс Андерсон, Драма, комедия, 2 ...
  • Павшая империя / Hirokin (Алехо Мо-Сан, фантастика, боевик, драма, приключе ...
  • Большой отрыв БОБа / B.O.B.s Big Break (Роберт Портер, короткометражка, ан ...
  • Монстры на каникулах / Hotel Transylvania (Геннадий Тартаковский, мультфиль ...
  • Переростки / The Inbetweeners (Бен Палмер, комедия, 2011) [BDRip, Дублирова ...
  • Переростки / The Inbetweeners (Бен Палмер, комедия, 2011) [BDRip, Дублирова ...
  • Информация
    Посетители, находящиеся в группе Гости, не могут оставлять комментарии к данной публикации.