вход на сайт

Имя пользователя :
Пароль :

Восстановление пароля Регистрация
Дом (Олег Погодин, драма, криминал, 2011) [BDRip 1080p, Не требуется]
Рейтинг:
(голосов: 1)



[img]{THEME}/images/logopost.png[/img]



Дом

Год выпуска: 2011
Страна: Россия
Производство: Централ Партнершип, Кинокомпания CTB, Park Cinema Production
Жанр: драма, криминал

Режиссёр: Олег Погодин
В ролях: Сергей Гармаш, Богдан Ступка, Лариса Малеванная, Владимир Епифанцев, Екатерина Редникова, Глеб Подгородинский, Игорь Савочкин, Александра Бледная, Евгения Дмитриева, Александр Назаров

Перевод: не требуется
Субтитры: нет

Описание: В большом доме, посреди донских степей, живёт семейство Шамановых. Всё есть в этом доме, - кроме покоя, любви и взаимопонимания. Отцы конфликтуют с детьми, дети с отцами и друг с другом. Старший сын, Виктор, возвращается в отчий дом после 25-летнего отсутствия. Пока еще он не знает, что по пятам за ним идёт группа профессиональных убийц...

IMDB: 7.80 (197)
КиноПоиск: 7.572 (3 100)


Качество: BDRip 1080p
Продолжительность:02:12:26

Формат: MKV
Видео кодек: MPEG-4 AVC
Аудио кодек:AC-3
Видео: 1920x816 (2,35:1) 8000 kbps,23,976 fps, 0.213 bitpix
Аудио: Русский Dolby Digital Audio / 5.1 / 48 kHz / 640 kbps / DN -4dB

"Mediainfo" ▼Общее
Уникальный идентификатор : 249483991898040188144743223974534117628 (0xBBB0DE7AFD4B79F482862BA4BC68F8FC)
Полное имя : Dom.2011.RUS.BDRip.x264.1080p.mkv
Формат : Matroska
Версия формата : Version 2
Размер файла : 7,83 Гбайт
Продолжительность : 2 ч. 12 м.
Общий поток : 8461 Кбит/сек
Название фильма : Дом
Дата кодирования : UTC 2012-02-08 20:04:01
Программа кодирования : mkvmerge v4.3.0 (Escape from the Island) сборка от Sep 5 2010 10:30:51
Библиотека кодирования : libebml v1.0.0 + libmatroska v1.0.0

Видео
Идентификатор : 1
Формат : AVC
Формат/Информация : Advanced Video Codec
Профиль формата : [email protected]
Параметр CABAC формата : Да
Параметр ReFrames формата : 4 кадра
Идентификатор кодека : V_MPEG4/ISO/AVC
Продолжительность : 2 ч. 12 м.
Битрейт : 8000 Кбит/сек
Ширина : 1920 пикселей
Высота : 816 пикселей
Соотношение сторон : 2,35:1
Частота кадров : 23,976 кадра/сек
Цветовое пространство : YUV
Субдискретизация насыщенности : 4:2:0
Битовая глубина : 8 бит
Тип развёртки : Прогрессивная
Бит/(Пиксели*Кадры) : 0.213
Размер потока : 7,08 Гбайт (90%)
Библиотека кодирования : x264 core 75 r1251kMod e553a4c
Настройки программы : cabac=1 / ref=4 / deblock=1:-1:-1 / analyse=0x3:0x133 / me=umh / subme=9 / psy=1 / psy_rd=1.0:0.0 / mixed_ref=0 / me_range=16 / chroma_me=1 / trellis=1 / 8x8dct=1 / cqm=0 / deadzone=21,11 / chroma_qp_offset=-2 / threads=6 / nr=0 / decimate=1 / mbaff=0 / bframes=4 / b_pyramid=0 / b_adapt=2 / b_bias=0 / direct=1 / wpredb=1 / keyint=250 / keyint_min=25 / scenecut=40 / rc_lookahead=40 / rc=cbr / mbtree=1 / bitrate=8000 / ratetol=1.0 / qcomp=0.60 / qpmin=10 / qpmax=51 / qpstep=4 / vbv_maxrate=50000 / vbv_bufsize=50000 / ip_ratio=1.40 / aq=1:1.00
Язык : Russian
Default : Да
Forced : Нет

Аудио
Идентификатор : 2
Формат : AC-3
Формат/Информация : Audio Coding 3
Расширение режима : CM (complete main)
Идентификатор кодека : A_AC3
Продолжительность : 2 ч. 12 м.
Вид битрейта : Постоянный
Битрейт : 640 Кбит/сек
Каналы : 6 каналов
Расположение каналов : Front: L C R, Side: L R, LFE
Частота : 48,0 КГц
Битовая глубина : 16 бит
Метод сжатия : С потерями
Размер потока : 606 Мбайт (8%)
Язык : Russian
Default : Да
Forced : Нет


3ea2b568b614862a2f3dfd3bcaaf1fe3c0f879a3Дом (Олег Погодин, драма, криминал, 2011) [BDRip 1080p, Не требуется] Дом (Олег Погодин, драма, криминал, 2011) [BDRip 1080p, Не требуется] " />

Аплоадер: Админ, дата: 26-02-2012, 02:49, торрент скачан: 359 раз

Понравилась раздача? Посмотрите эти:
  • Подглядывающий на кухне / Kick the Cock (Тинто Брасс, Эротика, короткометра ...
  • Византия / Byzantium (Нил Джордан, Фэнтези, триллер, драма, 2012) [BDRip 10 ...
  • Исходный код / Source Code (Дункан Джонс, фантастика, боевик, триллер, драм ...
  • Башня / The Tower (Чи-хун Ким, драма, 2012) [BDRip-AVC, Любительский (двухг ...
  • Перелом / Fracture (Грегори Хоблит, Триллер, драма, криминал, детектив, 200 ...
  • Ворон / The Raven (Джеймс МакТиг, Триллер, детектив, 2012) [BDRip 1080p, Ду ...
  • Я тоже хочу (Алексей Балабанов, Драма, криминал, 2012) [BDRip 720p, Не треб ...
  • Дом (Олег Погодин, драма, криминал, 2011) [DVDRip-AVC, Не требуется]
  • Высоцкий. Спасибо, что живой (Петр Буслов, драма, биография, 2011) [BDRip-A ...
  • Переростки / The Inbetweeners (Бен Палмер, Комедия, 2011) [BDRip-AVC, Профе ...
  • 1812: Уланская баллада (Олег Фесенко, Приключения, 2012) [BDRip-AVC, Не тре ...
  • Рейдер (Всеволод Аравин, драма, криминал, 2011) [BDRip 720p, оригинал]
  • Успеть за 30 минут / 30 Minutes or Less (Рубен Фляйшер, боевик,комедия,крим ...
  • Заражение / Contagion (Стивен Содерберг, Фантастика, 2011) [BDRip 1080p, Пр ...
  • Камень (Вячеслав Каминский, триллер, 2012) [BDRip 1080p, Не требуется]
  • Стыд / Shame (Стив МакКуин, драма, 2011) [BDRip 1080p, полное дублирование, ...
  • Охотник / The Hunter (Дэниэл Неттхейм, драма, приключения, 2011) [BDRip 108 ...
  • Лоракс: Серенада / The Lorax: Serenade (Кайл Балда, мультфильм, комедия, му ...
  • Счастливчик / The Lucky One (Скотт Хикс, Драма, мелодрама, 2012) [BDRip 108 ...
  • Дом (Олег Погодин, драма, криминал, 2011) [DVDRip, Не требуется]
  • Дом (Олег Погодин, драма, криминал, 2011) [DVD5, Не требуется [лицензия]]
  • Дом (Олег Погодин, драма, криминал, 2011) [HDRip, Не требуется]
  • Дом (Олег Погодин, драма, криминал, 2011) [Blu-ray disc 1080p, не требуется ...
  • Дом (Олег Погодин, драма, криминал, 2011) [HDRip, Не требуется]
  • Дом (Олег Погодин, драма, криминал, 2011) [BDRip, Не требуется]
  • Информация
    Посетители, находящиеся в группе Гости, не могут оставлять комментарии к данной публикации.