вход на сайт

Имя пользователя :
Пароль :

Восстановление пароля Регистрация
Камень (Вячеслав Каминский, триллер, 2012) [BDRip 1080p, Не требуется]
Рейтинг:
(голосов: 1)



[img]{THEME}/images/logopost.png[/img]



Камень
«Когда остаешься один, твое сердце превращается в...»

Год выпуска: 2012
Страна: Россия
Производство: Slava Film Company
Жанр: триллер

Режиссёр: Вячеслав Каминский
В ролях: Сергей Светлаков, Олеся Судзиловская, Николай Козак, Елена Коренева, Валда Бичкуте, Александр Колесников, Мария Козлова.

Перевод: Не требуется
Субтитры: Отсутствуют

Описание: Когда у известного бизнесмена похищают 7-летнего сына, он еще не представляет, какое испытание его ждет! Оказывается, таинственному похитителю не нужен никакой выкуп и у него единственное требование к отцу. В течение следующих суток тот должен решить, кто умрет из них двоих: его ребенок или он сам…



Качество: BDRip 1080p
Продолжительность: 01:24:49 час.

Формат: MKV
Видео кодек: x264
Аудио кодек: AC3
Видео: 1920x816 (2.35:1), 25.000 fps, x264 ~12,0 Мбит/сек, 0.306 bit/pixel
Аудио: 48 kHz, AC3, 3/2 (L,C,R,l,r) + LFE ch, ~640.00 kbps avg

Дата премьеры (мир): 19 января 2012
Дата премьеры (РФ): 19 января 2012, «Bazelevs Distribution»

MediaInfo ▼Общее
Уникальный идентификатор : 192763171180965406710923487381825657135 (0x9104D61B609F18A2BA2665CC9A5E192F)
Полное имя : Kamen.2011.O.BDRip.(1080p).mkv
Формат : Matroska
Версия формата : Version 2
Размер файла : 7,38 Гбайт
Продолжительность : 1 ч. 24 м.
Общий поток : 12,5 Мбит/сек
Дата кодирования : UTC 2012-02-18 16:42:39
Программа кодирования : mkvmerge v4.3.0 (Escape from the Island) сборка от Sep 5 2010 10:30:51
Библиотека кодирования : libebml v1.0.0 + libmatroska v1.0.0

Видео
Идентификатор : 1
Формат : AVC
Формат/Информация : Advanced Video Codec
Профиль формата : [email protected]
Параметр CABAC формата : Да
Параметр ReFrames формата : 4 кадра
Идентификатор кодека : V_MPEG4/ISO/AVC
Продолжительность : 1 ч. 24 м.
Битрейт : 12,0 Мбит/сек
Ширина : 1920 пикселей
Высота : 816 пикселей
Соотношение сторон : 2,35:1
Частота кадров : 25,000 кадров/сек
Цветовое пространство : YUV
Субдискретизация насыщенности : 4:2:0
Битовая глубина : 8 бит
Тип развёртки : Прогрессивная
Бит/(Пиксели*Кадры) : 0.306
Размер потока : 6,86 Гбайт (93%)
Библиотека кодирования : x264 core 75 r1251kMod e553a4c
Настройки программы : cabac=1 / ref=4 / deblock=1:-1:-1 / analyse=0x3:0x133 / me=umh / subme=9 / psy=1 / psy_rd=1.0:0.0 / mixed_ref=0 / me_range=16 / chroma_me=1 / trellis=1 / 8x8dct=1 / cqm=0 / deadzone=21,11 / chroma_qp_offset=-2 / threads=6 / nr=0 / decimate=1 / mbaff=0 / bframes=4 / b_pyramid=0 / b_adapt=2 / b_bias=0 / direct=1 / wpredb=1 / keyint=250 / keyint_min=25 / scenecut=40 / rc_lookahead=40 / rc=cbr / mbtree=1 / bitrate=12000 / ratetol=1.0 / qcomp=0.60 / qpmin=10 / qpmax=51 / qpstep=4 / vbv_maxrate=50000 / vbv_bufsize=50000 / ip_ratio=1.40 / aq=1:1.00
Язык : Russian
Default : Да
Forced : Нет

Аудио
Идентификатор : 2
Формат : AC-3
Формат/Информация : Audio Coding 3
Расширение режима : CM (complete main)
Идентификатор кодека : A_AC3
Продолжительность : 1 ч. 24 м.
Вид битрейта : Постоянный
Битрейт : 640 Кбит/сек
Каналы : 6 каналов
Расположение каналов : Front: L C R, Side: L R, LFE
Частота : 48,0 КГц
Битовая глубина : 16 бит
Метод сжатия : С потерями
Размер потока : 388 Мбайт (5%)
Язык : Russian
Default : Да
Forced : Да

Меню
00:00:00.000 : en:
00:00:39.000 : en:
00:11:18.880 : en:
00:22:26.840 : en:
00:32:14.960 : en:
00:42:02.600 : en:
00:52:13.080 : en:
01:02:49.560 : en:
01:12:03.439 : en:

61b4936ae31f7de7c194b24aa9a58bcfa5cd9986Камень (Вячеслав Каминский, триллер, 2012) [BDRip 1080p, Не требуется] Камень (Вячеслав Каминский, триллер, 2012) [BDRip 1080p, Не требуется] " />

Аплоадер: Админ, дата: 20-02-2012, 18:46, торрент скачан: 359 раз

Понравилась раздача? Посмотрите эти:
  • Подглядывающий на кухне / Kick the Cock (Тинто Брасс, Эротика, короткометра ...
  • Византия / Byzantium (Нил Джордан, Фэнтези, триллер, драма, 2012) [BDRip 10 ...
  • Дом в конце улицы / House at the End of the Street (Марк Тондерай, Ужасы, т ...
  • Ворон / The Raven (Джеймс МакТиг, Триллер, детектив, 2012) [BDRip 1080p, Ду ...
  • Камень (Вячеслав Каминский, триллер, 2012) [BDRip-AVC, Не требуется]
  • Камень (Вячеслав Каминский, триллер, 2012) [BDRip-AVC, Не требуется]
  • Камень (Вячеслав Каминский, триллер, 2012) [BDRip-AVC, Не требуется]
  • Камень (Вячеслав Каминский, триллер, 2012) [BDRip 720p, Не требуется]
  • Дом (Олег Погодин, драма, криминал, 2011) [BDRip 1080p, Не требуется]
  • Схватка / The Grey (Джо Карнахан, боевик, триллер, драма, приключения, 2012 ...
  • Стыд / Shame (Стив МакКуин, драма, 2011) [BDRip 1080p, полное дублирование, ...
  • Охотник / The Hunter (Дэниэл Неттхейм, драма, приключения, 2011) [BDRip 108 ...
  • Камень (Вячеслав Каминский, Триллер, драма, криминал, 2012) [BDRip-AVC, Ори ...
  • Лоракс: Серенада / The Lorax: Serenade (Кайл Балда, мультфильм, комедия, му ...
  • Мстители / The Avengers (Джосс Уидон, фантастика, боевик, триллер, 2012) [B ...
  • Счастливчик / The Lucky One (Скотт Хикс, Драма, мелодрама, 2012) [BDRip 108 ...
  • Камень (Вячеслав Каминский, Фантастика, триллер, криминал, 2012) [DVD9, Не ...
  • Камень (Вячеслав Каминский, триллер, 2012) [BDRip, Не требуется]
  • Камень (Вячеслав Каминский, триллер, 2012) [Blu-ray disc 1080p, не требуетс ...
  • Камень (Вячеслав Каминский, триллер, 2012) [HDRip, не требуется]
  • Информация
    Посетители, находящиеся в группе Гости, не могут оставлять комментарии к данной публикации.