вход на сайт

Имя пользователя :
Пароль :

Восстановление пароля Регистрация
Смешарики. Начало (Денис Чернов, Мелодрама, 2011) [BDRip 1080p, Не требуется]
Рейтинг:
(голосов: 1)



[img]{THEME}/images/logopost.png[/img]



Смешарики. Начало

Год выпуска: 2011
Страна: Россия
Производство: Базелевс Продакшн
Жанр: Мелодрама, комедия, семейный

Режиссёр: Денис Чернов
В ролях: Михаил Черняк, Сергей Мардарь, Антон Виноградов, Владимир Постников, Светлана Письмиченко, Вадим Бочанов, Михаил Хрусталев, Станислав Концевич, Владимир Маслаков, Ксения Бржезовская

Перевод: Не требуется
Субтитры: Отсутствуют

Описание: Такую экстремальную историю про Смешариков вы не могли себе представить: покинув свою уютную страну, Смешарики оказываются в современном мегаполисе в роли супергероев! Зачем? Они приняли очень важное для себя решение — спасти мир от нависшей угрозы. Этот «ответственный» шаг приводит к самому захватывающему приключению в их жизни!



IMDB: 6.20 (52)
КиноПоиск: 6.005 (1 889)

Качество:BDRip 1080p
Продолжительность:01:30:56 час.


Формат: MKV
Видео кодек: x264
Аудио кодек: DTS
Видео: 1920x1080 (16:9 ), 23.976 fps, [email protected]~9727 kbps avg, 0.196bit/pixel
Аудио:48 kHz, DTS, 3/2 (L,C,R,l,r) + LFE ch, ~1536.00 kbps avg

Дата премьеры (мир): 22 декабря 2011
Дата премьеры (РФ): 22 декабря 2011, «Каропрокат»

MediaInfo ▼General
Unique ID : 249069784553563500641746441532189288789 (0xBB61187B4C4B497DAFE252BB90A1A955)
Complete name : Smeshariki.Nachalo.2011.1080p.BluRay.Rus.HDCLUB.mkv
Format : Matroska
Format version : Version 2
File size : 7.28 GiB
Duration : 1h 30mn
Overall bit rate : 11.5 Mbps
Movie name : Смешарики. Начало (2011) - Release for HDCLUB by Skazhutin
Encoded date : UTC 2012-02-17 19:33:22
Writing application : mkvmerge v5.2.1 (A Far Off Place) built on Jan 2 2012 23:21:10
Writing library : libebml v1.2.3 + libmatroska v1.3.0
Attachment : Yes / Yes

Video
ID : 1
Format : AVC
Format/Info : Advanced Video Codec
Format profile : [email protected]
Format settings, CABAC : Yes
Format settings, ReFrames : 4 frames
Codec ID : V_MPEG4/ISO/AVC
Duration : 1h 30mn
Bit rate : 9 727 Kbps
Width : 1 920 pixels
Height : 1 080 pixels
Display aspect ratio : 16:9
Frame rate : 23.976 fps
Color space : YUV
Chroma subsampling : 4:2:0
Bit depth : 8 bits
Scan type : Progressive
Bits/(Pixel*Frame) : 0.196
Stream size : 6.18 GiB (85%)
Title : Release for HDCLUB
Writing library : x264 core 120 r2164 da19765
Encoding settings : cabac=1 / ref=4 / deblock=1:-1:-1 / analyse=0x3:0x113 / me=umh / subme=11 / psy=1 / psy_rd=0.80:0.00 / mixed_ref=1 / me_range=48 / chroma_me=1 / trellis=2 / 8x8dct=1 / cqm=0 / deadzone=21,11 / fast_pskip=1 / chroma_qp_offset=-2 / threads=12 / sliced_threads=0 / nr=0 / decimate=1 / interlaced=0 / bluray_compat=0 / constrained_intra=0 / bframes=8 / b_pyramid=2 / b_adapt=2 / b_bias=0 / direct=1 / weightb=1 / open_gop=0 / weightp=2 / keyint=250 / keyint_min=23 / scenecut=40 / intra_refresh=0 / rc_lookahead=40 / rc=crf / mbtree=0 / crf=16.5 / qcomp=0.60 / qpmin=0 / qpmax=69 / qpstep=4 / vbv_maxrate=50000 / vbv_bufsize=62500 / crf_max=0.0 / nal_hrd=none / ip_ratio=1.40 / pb_ratio=1.30 / aq=2:0.70
Language : Russian
Default : Yes
Forced : No
Matrix coefficients : BT.709-5, BT.1361, IEC 61966-2-4 709, SMPTE RP177

Audio
ID : 2
Format : DTS
Format/Info : Digital Theater Systems
Codec ID : A_DTS
Duration : 1h 30mn
Bit rate mode : Constant
Bit rate : 1 510 Kbps
Channel(s) : 6 channels
Channel positions : Front: L C R, Side: L R, LFE
Sampling rate : 48.0 KHz
Bit depth : 24 bits
Compression mode : Lossy
Stream size : 982 MiB (13%)
Title : DTS 5.1 @ 1536 kbps
Language : Russian
Default : Yes
Forced : No

Menu
00:00:00.000 : en:Chapter 1
00:13:21.717 : en:Chapter 2
00:34:07.003 : en:Chapter 3
00:53:46.223 : en:Chapter 4
01:12:34.391 : en:Chapter 5





6d8e644bb129430654ea627bac8c7fbc2acd47edСмешарики. Начало (Денис Чернов, Мелодрама, 2011) [BDRip 1080p, Не требуется] Смешарики. Начало (Денис Чернов, Мелодрама, 2011) [BDRip 1080p, Не требуется] " />

Аплоадер: Админ, дата: 19-02-2012, 13:49, торрент скачан: 359 раз

Понравилась раздача? Посмотрите эти:
  • О чём молчат девушки (Карен Оганесян, Комедия, 2013) [BDRip-AVC, Не требует ...
  • Джунгли (Александр Войтинский, Мелодрама, комедия, приключения, 2012) [BDRi ...
  • Толстяк на ринге / Here Comes the Boom (Фрэнк Корачи, Боевик, комедия, 201 ...
  • Смешарики. Начало (Денис Чернов, мультфильм, комедия, приключения, семейный ...
  • Смешарики. Начало (Денис Чернов, мультфильм, комедия, приключения, семейный ...
  • [3D] Смешарики. Начало (Денис Чернов, Мультфильм, 2011) [BDrip, Дублированн ...
  • Бриллиантовая рука (Леонид Гайдай, комедия, криминал, приключения, 1968) [B ...
  • Иван Царевич и Серый Волк (Владимир Торопчин, мультфильм, семейный, 2011) [ ...
  • Смешарики. Начало (Денис Чернов, Мелодрама, 2011) [BDRip 720p, Не требуется ...
  • Схватка / The Grey (Джо Карнахан, Боевик, 2012) [BDRip 720p, Профессиональн ...
  • Белый тигр (Карен Шахназаров, военный, 2012) [BDRip 720p, Не требуется]
  • Девчата (Юрий Чулюкин, мелодрама, комедия, 1961) [BDRip 720p, Не требуется] ...
  • Джок / Jock (Дункан МакНили, мультфильм, комедия, приключения, семейный, 20 ...
  • Девчата (Юрий Чулюкин, мелодрама, комедия, 1961) [BDRip 1080, Оригинал (не ...
  • BBC: Большой Барьерный риф (с 1 по 3 из 3) / Great Barrier Reef (Джеймс Бр ...
  • Mylene Farmer / Du Temps [2011, Pop, HDTVRip]
  • Mylene Farmer / Bleu Noir [2011, Pop, HDTVRip]
  • Собачье сердце (Владимир Бортко, фантастика, драма, комедия, 1988) [BDRip 1 ...
  • Смешарики. Начало (Денис Чернов, мультфильм, комедия, 2011) [BDRip, Не треб ...
  • Смешарики. Начало (Денис Чернов, мультфильм, комедия, семейный, 2011) [HDRi ...
  • Информация
    Посетители, находящиеся в группе Гости, не могут оставлять комментарии к данной публикации.