вход на сайт

Имя пользователя :
Пароль :

Восстановление пароля Регистрация
Паранормальное явление 3 / Paranormal Activity 3 [Theatrical Cut] (Генри Джуст, Эриель Шульман, ужасы, триллер, 2011) [BDRip 720p, Профессиональный (полное дублирование)] + Оригинал + Субтитры (eng)]
Рейтинг:
(голосов: 1)



[img]{THEME}/images/logopost.png[/img]



Паранормальное явление 3 / Paranormal Activity 3

Год выпуска: 2011
Страна: США
Производство: Paramount Pictures
Жанр: ужасы,триллер

Режиссёр:Генри Джуст, Эриель Шульман
В ролях:Спрэг Грэйден, Кристофер Николас Смит, Дастин Ингрэм, Кэти Фезерстон, Лоурен Биттнер, Хлоя Ксенджери, Джесика Браун, Брайан Боланд, Марк Фредерикс

Перевод:Дублированный + оригинал
Субтитры: русские, украинские, английские

Описание:Действие фильма разворачивается в 1988 году. В доме, где живет семья с двумя детьми, начинают происходить странные вещи. Случилось это после того, как девочки Кэти и Кристи решили вызвать дух Кровавой Мэри и заснять все происходящее на видеокамеру. Никто не мог представить себе последствий детской шалости.

Качество: BDRip 720p
Продолжительность: 01:24:08

Премьера (Мир): 14 октября 2011
Премьера (СНГ): 20 октября 2010

IMDB: 6.20 (21 912)
КиноПоиск: 6.123 (7 448)

Релиз на DVD: февраль 2011, «Новый диск»

Формат: MKV
Видео кодек: AVC
Аудио кодек: AC3, DTS
Видео: 1280x720 (16:9), 5453 kb/s, 23,976 fps, 0.247
Аудио: AC3, 640 kb/s, 5.1, 48 kHz, 16 bits [rus]
Аудио 2: DTS, 1510 kb/s, 5.1, 48 kHz, 24 bits [eng]

MediaInfo ▼General
Complete name : Paranormal.Activity.3.2011.D.Theatrical.Cut.BDRip.720p.mkv
Format : Matroska
File size : 4.56 GiB
Duration : 1h 24mn
Overall bit rate : 7 757 Kbps
Movie name : BlackSnow
Encoded date : UTC 2012-02-13 15:34:17
Writing application : mkvmerge v4.9.1 (Ich will) сборка от Jul 11 2011 23:53:15
Writing library : libebml v1.2.1 + libmatroska v1.1.1

Video
ID : 1
Format : AVC
Format/Info : Advanced Video Codec
Format profile : [email protected]
Format settings, CABAC : Yes
Format settings, ReFrames : 9 frames
Codec ID : V_MPEG4/ISO/AVC
Duration : 1h 24mn
Bit rate : 5 453 Kbps
Width : 1 280 pixels
Height : 720 pixels
Display aspect ratio : 16:9
Frame rate : 23.976 fps
Color space : YUV
Chroma subsampling : 4:2:0
Bit depth : 8 bits
Scan type : Progressive
Bits/(Pixel*Frame) : 0.247
Stream size : 3.21 GiB (70%)
Writing library : x264 core 120 r2120 0c7dab9
Encoding settings : cabac=1 / ref=9 / deblock=1:-3:-3 / analyse=0x3:0x133 / me=umh / subme=11 / psy=1 / psy_rd=1.10:0.10 / mixed_ref=1 / me_range=24 / chroma_me=1 / trellis=2 / 8x8dct=1 / cqm=0 / deadzone=21,11 / fast_pskip=0 / chroma_qp_offset=-3 / threads=12 / sliced_threads=0 / nr=0 / decimate=0 / interlaced=0 / bluray_compat=0 / constrained_intra=0 / bframes=7 / b_pyramid=2 / b_adapt=2 / b_bias=0 / direct=3 / weightb=1 / open_gop=0 / weightp=2 / keyint=250 / keyint_min=23 / scenecut=40 / intra_refresh=0 / rc_lookahead=150 / rc=crf / mbtree=1 / crf=16.0 / qcomp=0.60 / qpmin=0 / qpmax=69 / qpstep=4 / ip_ratio=1.40 / aq=1:1.00
Language : English

Audio #1
ID : 2
Format : AC-3
Format/Info : Audio Coding 3
Mode extension : CM (complete main)
Codec ID : A_AC3
Duration : 1h 24mn
Bit rate mode : Constant
Bit rate : 640 Kbps
Channel(s) : 6 channels
Channel positions : Front: L C R, Side: L R, LFE
Sampling rate : 48.0 KHz
Bit depth : 16 bits
Stream size : 385 MiB (8%)
Title : DUB Blu-ray CEE
Language : Russian

Audio #2
ID : 3
Format : DTS
Format/Info : Digital Theater Systems
Codec ID : A_DTS
Duration : 1h 24mn
Bit rate mode : Constant
Bit rate : 1 510 Kbps
Channel(s) : 6 channels
Channel positions : Front: L C R, Side: L R, LFE
Sampling rate : 48.0 KHz
Bit depth : 24 bits
Stream size : 909 MiB (19%)
Title : Original
Language : English

Text #1
ID : 4
Format : UTF-8
Codec ID : S_TEXT/UTF8
Codec ID/Info : UTF-8 Plain Text
Title : Full
Language : Russian

Text #2
ID : 5
Format : UTF-8
Codec ID : S_TEXT/UTF8
Codec ID/Info : UTF-8 Plain Text
Title : Full
Language : Ukrainian

Text #3
ID : 6
Format : UTF-8
Codec ID : S_TEXT/UTF8
Codec ID/Info : UTF-8 Plain Text
Title : Full
Language : English

Text #4
ID : 7
Format : UTF-8
Codec ID : S_TEXT/UTF8
Codec ID/Info : UTF-8 Plain Text
Title : SDH
Language : English

Menu
00:00:00.000 : en:00:00:00.000
94268004e51d0efbe19e1f9da17932305f9de7e2Паранормальное явление 3 / Paranormal Activity 3 [Theatrical Cut] (Генри Джуст, Эриель Шульман, ужасы, триллер, 2011) [BDRip 720p, Профессиональный (полное дублирование)] + Оригинал + Субтитры (eng)] Паранормальное явление 3 / Paranormal Activity 3 [Theatrical Cut] (Генри Джуст, Эриель Шульман, ужасы, триллер, 2011) [BDRip 720p, Профессиональный (полное дублирование)] + Оригинал + Субтитры (eng)] " />

Аплоадер: Админ, дата: 14-02-2012, 22:28, торрент скачан: 359 раз

Понравилась раздача? Посмотрите эти:
  • Паранормальное явление 4 / Paranormal Activity 4 [Unrated] (Генри Джуст / H ...
  • Паранормальное явление 4 / Paranormal Activity 4 (Генри Джуст, ужасы, 2012) ...
  • Паранормальное явление 4 / Paranormal Activity 4 (Генри Джуст, Эриель Шульм ...
  • Паранормальное явление 4 / Paranormal Activity 4 (Генри Джуст, Эриель Шульм ...
  • Паранормальное явление 4 / Paranormal Activity 4 (Генри Джуст, Эриель Шульм ...
  • Паранормальное явление 4 / Paranormal Activity 4 (Генри Джуст, Эриель Шульм ...
  • Паранормальное явление 4 / Paranormal Activity 4 (Генри Джуст, Эриель Шульм ...
  • Паранормальное явление 2 / Paranormal Activity 2 (Тод «Кип» Уильямс, ужасы, ...
  • Паранормальное явление 2 / Paranormal Activity 2 (Тод «Кип» Уильямс / Tod « ...
  • Паранормальное явление 2 / Paranormal Activity 2 [Theatrical Сut / Театраль ...
  • Паранормальное явление 3 / Paranormal Activity 3 [Theatrical Cut] (Генри Дж ...
  • Паранормальное явление 3 / Paranormal Activity 3 [Theatrical Cut] (Генри Дж ...
  • Паранормальное явление 3 / Paranormal Activity 3 [UNRATED](Генри Джуст, Эр ...
  • Паранормальное явление 4 / Paranormal Activity 4 (Генри Джуст, Эриель Шульм ...
  • Исходный код / Source Code (Дункан Джонс, фантастика, боевик, триллер, 2011 ...
  • Бобер / The Beaver (Джоди Фостер, драма, 2011) [BDRip 720p, Дубляж + Оригин ...
  • Шрамы 3D / Paranormal Xperience 3D (Серджо Визкано, ужасы, триллер, 2011) [ ...
  • Паранормальное явление 2 / Paranormal Activity 2 (Тод Уильямс, ужасы, трилл ...
  • Паранормальное явление 3 / Paranormal Activity 3 [UNRATED](Генри Джуст, Эр ...
  • Паранормальное явление 3 / Paranormal Activity 3 [UNRATED](Генри Джуст, Эр ...
  • Паранормальное явление 3 / Paranormal Activity 3 (Генри Джуст, Эриель Шульм ...
  • Паранормальное явление 3 / Paranormal Activity 3 [Theatrical Cut] (Генри Дж ...
  • Паранормальное Явление 3 / Paranormal Activity 3 (Генри Джуст, Эриель Шульм ...
  • [Трейлер] Паранормальное явление 4 / Paranormal Activity 4 (Генри Джуст, Эр ...
  • [Трейлер] Паранормальное явление 4 / Paranormal Activity 4 (Генри Джуст, Эр ...
  • Информация
    Посетители, находящиеся в группе Гости, не могут оставлять комментарии к данной публикации.