вход на сайт

Имя пользователя :
Пароль :

Восстановление пароля Регистрация
Старая добрая оргия / A Good Old Fashioned Orgy (Алекс Грегори, Питер Хайк, Комедия, 2011) [BDRip 720p, Дублированный + Оригинал + Субтитры (rus)]
Рейтинг:
(голосов: 1)



[img]{THEME}/images/logopost.png[/img]



Старая добрая оргия | A Good Old Fashioned Orgy
«Старые друзья в новых позициях»

Год выпуска: 2011
Страна: США
Производство: Aura Film Partnership
Жанр: комедия

Режиссёр: Алекс Грегори, Питер Хайк
В ролях: Джейсон Судейкис, Лесли Бибб, Лэйк Белл, Мишелль Борт, Ник Кролл, Тайлер Лэбин, Анджела Сарафян, Линдсэй Слоун, Мартин Старр, Люси Панч

Перевод: Дублированный + Оригинал
Субтитры: Русские [полные, UTF-8]

Описание: У тридцатилетнего Эрика неприятность: отец решил продать семейный загородный дом в Хэмптоне! Тот самый дом, в котором вот уже много лет подряд Эрик проводит грандиозные тематические вечеринки. Очевидно, теперь Эрику придется наконец-то повзрослеть и «взяться за ум». Но перед тем как дом уйдет с молотка, Эрик и группа друзей решают устроить заключительную, самую сумасшедшую прощальную вечеринку - Старую добрую оргию…

IMDB: 6.00 (2 883)
КиноПоиск: 5.989 (2 579)



Качество: BDRip 720p
Продолжительность: 01:34:40

Релиз от:

Формат: MKV
Видео кодек: x264
Аудио кодек: AC3 Dolby Digital
Видео: 1 280x688 (1.860), 24.000 fps, 6 765 Kbps avg, 0.320 bit/pixel
Аудио1: 48 kHz, AC3 Dolby Digital, 3/2 (L,C,R,l,r) + LFE ch, 640.00 kbps avg
Аудио2: 48 kHz, AC3 Dolby Digital, 3/2 (L,C,R,l,r) + LFE ch, 640.00 kbps avg

Дата премьеры (мир): 29 апреля 2011
Дата премьеры (РФ): 27 октября 2011, «Каравелла DDC»

MediaInfo ▼Video
ID : 1
Format : AVC
Format/Info : Advanced Video Codec
Format profile : [email protected]
Format settings, CABAC : Yes
Format settings, ReFrames : 12 frames
Codec ID : V_MPEG4/ISO/AVC
Duration : 1h 34mn
Bit rate : 6 765 Kbps
Width : 1 280 pixels
Height : 688 pixels
Display aspect ratio : 1.860
Frame rate : 24.000 fps
Color space : YUV
Chroma subsampling : 4:2:0
Bit depth : 8 bits
Scan type : Progressive
Bits/(Pixel*Frame) : 0.320
Stream size : 4.37 GiB (82%)
Title : A Good Old Fashioned Orgy.BDRip.720p
Writing library : x264 core 119 r2106 07efeb4
Encoding settings : cabac=1 / ref=12 / deblock=1:-3:-3 / analyse=0x3:0x113 / me=umh / subme=9 / psy=1 / psy_rd=1.00:0.10 / mixed_ref=1 / me_range=32 / chroma_me=1 / trellis=1 / 8x8dct=1 / cqm=0 / deadzone=21,11 / fast_pskip=1 / chroma_qp_offset=-3 / threads=6 / sliced_threads=0 / nr=0 / decimate=1 / interlaced=0 / bluray_compat=0 / constrained_intra=0 / bframes=11 / b_pyramid=2 / b_adapt=2 / b_bias=0 / direct=3 / weightb=1 / open_gop=0 / weightp=2 / keyint=250 / keyint_min=23 / scenecut=40 / intra_refresh=0 / rc=2pass / mbtree=0 / bitrate=6765 / ratetol=1.0 / qcomp=0.70 / qpmin=0 / qpmax=69 / qpstep=4 / cplxblur=20.0 / qblur=0.5 / ip_ratio=1.40 / pb_ratio=1.30 / aq=1:1.00
Language : English
Default : Yes
Forced : No

Audio #1
ID : 2
Format : AC-3
Format/Info : Audio Coding 3
Mode extension : CM (complete main)
Codec ID : A_AC3
Duration : 1h 34mn
Bit rate mode : Constant
Bit rate : 640 Kbps
Channel(s) : 6 channels
Channel positions : Front: L C R, Side: L R, LFE
Sampling rate : 48.0 KHz
Bit depth : 16 bits
Compression mode : Lossy
Stream size : 433 MiB (8%)
Title : [email protected] kb/s
Language : Russian
Default : Yes
Forced : No

Audio #2
ID : 3
Format : AC-3
Format/Info : Audio Coding 3
Mode extension : CM (complete main)
Codec ID : A_AC3
Duration : 1h 34mn
Bit rate mode : Constant
Bit rate : 640 Kbps
Channel(s) : 6 channels
Channel positions : Front: L C R, Side: L R, LFE
Sampling rate : 48.0 KHz
Bit depth : 16 bits
Compression mode : Lossy
Stream size : 433 MiB (8%)
Title : [email protected] kb/s
Language : English
Default : No
Forced : No

Text
ID : 4
Format : UTF-8
Codec ID : S_TEXT/UTF8
Codec ID/Info : UTF-8 Plain Text
Language : Russian
Default : No
Forced : No

Menu
00:00:00.000 : en:00:00:00.000
00:10:43.125 : en:00:10:43.125
00:17:45.292 : en:00:17:45.292
00:25:05.542 : en:00:25:05.542
00:32:13.375 : en:00:32:13.375
00:39:47.375 : en:00:39:47.375
00:47:33.917 : en:00:47:33.917
00:55:11.667
9753ee90a2ca0bbdee2f90e28794ad2aede25477Старая добрая оргия / A Good Old Fashioned Orgy (Алекс Грегори, Питер Хайк, Комедия, 2011) [BDRip 720p, Дублированный + Оригинал + Субтитры (rus)] Старая добрая оргия / A Good Old Fashioned Orgy (Алекс Грегори, Питер Хайк, Комедия, 2011) [BDRip 720p, Дублированный + Оригинал + Субтитры (rus)] " />

Аплоадер: Админ, дата: 28-01-2012, 02:24, торрент скачан: 359 раз

Понравилась раздача? Посмотрите эти:
  • Грязь / Filth (Джон С. Бейрд, криминал, драма, комедия, 2013) [BDRip-AVC, ...
  • Зубная фея 2 / Tooth Fairy 2 (Алекс Замм, комедия, семейный, 2012) [BDRip 7 ...
  • Старая добрая оргия / A Good Old Fashioned Orgy (Алекс Грегори, Питер Хайк, ...
  • Старая добрая оргия / A Good Old Fashioned Orgy (Алекс Грегори, Питер Хайк, ...
  • Хранитель времени / Hugo (Мартин Скорсезе, Драма, 2011) [BDRip-AVC, Професс ...
  • Мармадюк / Marmaduke (Том Дей, комедия, семейный, 2010) [BDRip-AVC, Дублиро ...
  • Бедная богатая девочка / Young Adult (Джейсон Райтман, драма, комедия, 2011 ...
  • Старая добрая оргия / A Good Old Fashioned Orgy (Алекс Грегори, Питер Хайк, ...
  • Идеальный Голос / Pitch Perfect (Джейсон Мур, Комедия, музыка, 2012) [BDRip ...
  • Исходный код / Source Code (Дункан Джонс, фантастика, боевик, триллер, 2011 ...
  • Чаббчаббы спасают Рождество / The Chubbchubbs Save Xmas (Коуди Камерон, мул ...
  • Человек, который изменил всё / Moneyball (Беннетт Миллер, драма, биография, ...
  • Старая добрая оргия / A Good Old Fashioned Orgy (Алекс Грегори, комедия, 20 ...
  • «Старый» Новый год / New Years Eve (Гэрри Маршалл, мелодрама, комедия, 2011 ...
  • Проект X: Дорвались / Project X (Нима Нуризаде, комедия, 2012) [BDRip 720p, ...
  • Мачо и ботан / 21 Jump Street (Фил Лорд, Крис Миллер, боевик, комедия, 2012 ...
  • Ворон / The Raven (Джеймс МакТиг, Триллер, детектив, 2012) [BDRip 720p, Дуб ...
  • Супер Майк / Magic Mike (Стивен Содерберг, Драма, комедия, 2012) [BDRip 720 ...
  • Mylene Farmer / Du Temps [2011, Pop, HDTVRip]
  • Старая добрая оргия / A Good Old Fashioned Orgy (Алекс Грегори, Питер Хайк, ...
  • [iPhone, iPod, iPad] Старая добрая оргия / A Good Old Fashioned Orgy (Алекс ...
  • Профессионал / Killer Elite (Гэри МакКендри, боевик, триллер, криминал, 201 ...
  • Старая добрая оргия / A Good Old Fashioned Orgy (Алекс Грегори, Питер Хайк, ...
  • Старая добрая оргия / A Good Old Fashioned Orgy (Алекс Грегори, Питер Хайк, ...
  • Старая добрая оргия / A Good Old Fashioned Orgy (Алекс Грегори, Питер Хайк, ...
  • Информация
    Посетители, находящиеся в группе Гости, не могут оставлять комментарии к данной публикации.