вход на сайт

Имя пользователя :
Пароль :

Восстановление пароля Регистрация
Дом грёз / Dream House (Джим Шеридан, триллер, драма, детектив, 2011) [BDRip 720p, Дубляж + оригинал]
Рейтинг:
(голосов: 1)



[img]{THEME}/images/logopost.png[/img]



Дом грёз / Dream House

«Once upon a time, there were two little girls who lived in a house.»

Год выпуска: 2011
Страна: США
Производство: Morgan Creek Productions
Жанр: триллер, драма, детектив

Режиссёр: Джим Шеридан
В ролях: Дэниэл Крэйг, Рейчел Вайс, Наоми Уоттс, Элиас Котеас, Мартон Чокаш, Тейлор Джир, Клер Джир, Рэйчел Дж. Фокс, Джейн Александр, Брайан Мюррей

Перевод: Профессиональный (полное дублирование) + оригинал
Субтитры:русские, английские
Описание
Состоятельный издатель со своей женой и двумя дочерьми переезжают в тихий провинциальный городок, который на поверку оказывается не таким уж и тихим. При участии любопытной соседки семейство узнает, что их дом стал местом жестокого убийства, а преступник до сих пор разгуливает на свободе.



Доп. информация

MediaInfo ▼TextFormat : Matroska
File size : 4.47 GiB
Duration : 1h 31mn
Overall bit rate : 6 963 Kbps
Movie name : IRONCLUB
Encoded date : UTC 2012-01-22 10:18:52
Writing application : mkvmerge v4.9.1 (Ich will) сборка от Jul 11 2011 23:53:15
Writing library : libebml v1.2.1 + libmatroska v1.1.1
Video
ID : 1
Format : AVC
Format/Info : Advanced Video Codec
Format profile : [email protected]
Format settings, CABAC : Yes
Format settings, ReFrames : 12 frames
Codec ID : V_MPEG4/ISO/AVC
Duration : 1h 31mn
Bit rate : 3 943 Kbps
Width : 1 280 pixels
Height : 534 pixels
Display aspect ratio : 2.35:1
Frame rate : 23.976 fps
Color space : YUV
Chroma subsampling : 4:2:0
Bit depth : 8 bits
Scan type : Progressive
Bits/(Pixel*Frame) : 0.241
Stream size : 2.45 GiB (55%)
Title : Dream.House.2011.BluRay.720p.DTS.x264-CHD
Writing library : x264 core 119 r2106 07efeb4
Encoding settings : cabac=1 / ref=12 / deblock=1:-3:-3 / analyse=0x3:0x113 / me=umh / subme=10 / psy=1 / psy_rd=1.05:0.10 / mixed_ref=1 / me_range=32 / chroma_me=1 / trellis=2 / 8x8dct=1 / cqm=2 / deadzone=21,11 / fast_pskip=0 / chroma_qp_offset=-2 / threads=12 / sliced_threads=0 / nr=0 / decimate=1 / interlaced=0 / bluray_compat=0 / constrained_intra=0 / bframes=6 / b_pyramid=2 / b_adapt=2 / b_bias=0 / direct=3 / weightb=1 / open_gop=0 / weightp=2 / keyint=250 / keyint_min=23 / scenecut=40 / intra_refresh=0 / rc_lookahead=40 / rc=2pass / mbtree=1 / bitrate=3943 / ratetol=1.0 / qcomp=0.60 / qpmin=1 / qpmax=63 / qpstep=4 / cplxblur=20.0 / qblur=0.5 / vbv_maxrate=40000 / vbv_bufsize=30000 / nal_hrd=none / ip_ratio=1.40 / aq=1:0.80
Language : English
Audio #1
ID : 2
Format : DTS
Format/Info : Digital Theater Systems
Codec ID : A_DTS
Duration : 1h 31mn
Bit rate mode : Constant
Bit rate : 1 510 Kbps
Channel(s) : 6 channels
Channel positions : Front: L C R, Side: L R, LFE
Sampling rate : 48.0 KHz
Bit depth : 24 bits
Stream size : 993 MiB (22%)
Title : DUB
Language : Russian
Audio #2
ID : 3
Format : DTS
Format/Info : Digital Theater Systems
Codec ID : A_DTS
Duration : 1h 31mn
Bit rate mode : Constant
Bit rate : 1 510 Kbps
Channel(s) : 6 channels
Channel positions : Front: L C R, Side: L R, LFE
Sampling rate : 48.0 KHz
Bit depth : 24 bits
Stream size : 993 MiB (22%)
Title : Original
Language : English
Text #1
ID : 4
Format : UTF-8
Codec ID : S_TEXT/UTF8
Codec ID/Info : UTF-8 Plain Text
Title : Forced
Language : Russian
Text #2
ID : 5
Format : UTF-8
Codec ID : S_TEXT/UTF8
Codec ID/Info : UTF-8 Plain Text
Title : English
Language : English


Тех. данные
Качество: BDRip 720p [CHD]
Продолжительность: 01:31:59

Формат: MKV
Видео кодек: x264
Аудио кодек: DTS
Видео: 1280x534 (2.40:1) at 23.976 fps, [email protected], 2pass, ~3943 avg, 0.241 bit/pix
Аудио #1: 48 kHz, DTS, 3/2 (L,C,R,l,r) + LFE ch, ~1536.00 kbps avg |RUS|
Аудио #2: 48 kHz, DTS, 3/2 (L,C,R,l,r) + LFE ch, ~1536.00 kbps avg |ENG|



|Cтол заказов| Наши раздачи| Набор в группу| Сказать спасибо|


e1c6f5046dad1dc73bfe7ee5a98e81a52cd4d5acДом грёз / Dream House (Джим Шеридан, триллер, драма, детектив, 2011) [BDRip 720p, Дубляж + оригинал] Дом грёз / Dream House (Джим Шеридан, триллер, драма, детектив, 2011) [BDRip 720p, Дубляж + оригинал] " />

Аплоадер: Админ, дата: 23-01-2012, 01:00, торрент скачан: 359 раз

Понравилась раздача? Посмотрите эти:
  • Паркер / Parker (Тейлор Хэкфорд, Боевик, триллер, криминал, 2013) [BDRip 7 ...
  • Гость / The Caller (Мэттью Паркхилл, триллер, детектив, 2011) [BDRip 720p, ...
  • Суррогат / The Sessions (Бен Луин, драма, 2012) [BDRip 720p, Профессиональн ...
  • Дом грёз / Dream House (Джим Шеридан, триллер, драма, детектив, 2011) [BDRi ...
  • Дом грёз / Dream House (Джим Шеридан, триллер, драма, детектив, 2011) [BDRi ...
  • Дом грёз / Dream House (Джим Шеридан, триллер, драма, детектив, 2011) [HDRi ...
  • Исходный код / Source Code (Дункан Джонс, фантастика, боевик, триллер, 2011 ...
  • Бобер / The Beaver (Джоди Фостер, драма, 2011) [BDRip 720p, Дубляж + Оригин ...
  • Дети шпионов 4D / Spy Kids: All the Time in the World in 4D (Роберт Родриге ...
  • Чаббчаббы спасают Рождество / The Chubbchubbs Save Xmas (Коуди Камерон, мул ...
  • Человек, который изменил всё / Moneyball (Беннетт Миллер, драма, биография, ...
  • Домашняя работа / The Art of Getting By (Гэвин Вьесен, драма, мелодрама, 20 ...
  • Код Доступа «Кейптаун» / Safe House (Дэниэл Эспиноза, боевик, триллер, крим ...
  • Закон доблести / Act of Valor (Майк МакКой, Скотт Во, боевик, триллер, прик ...
  • Рейд / Serbuan maut (Гарет Эванс, Боевик, триллер, криминал, 2011) [BDRip 7 ...
  • Ворон / The Raven (Джеймс МакТиг, Триллер, детектив, 2012) [BDRip 720p, Дуб ...
  • Семь футов / Seven Below (Кевин Каррауэй, Ужасы, триллер, 2012) [BDRip 720p ...
  • Хижина в лесу / The Cabin in the Woods (Дрю Годдард, Ужасы, фантастика, три ...
  • Эволюция Борна / The Bourne Legacy (Тони Гилрой, Боевик, триллер, детектив, ...
  • Дом грёз / Dream House (Джим Шеридан, триллер, драма, детектив, 2011) [BDRi ...
  • Дом грёз / Dream House (Джим Шеридан, триллер, драма, детектив, 2011) [BDRi ...
  • Дом грёз / Dream House (Джим Шеридан / Jim Sheridan, триллер, драма, детект ...
  • Дом грёз / Dream House (Джим Шеридан, триллер, драма, детектив, 2011г) [320 ...
  • Дом грёз / Dream House (Джим Шеридан, триллер, драма, детектив, 2011) [HDRi ...
  • Дом грёз / Dream House (Джим Шеридан, триллер, драма, детектив, 2011) [BDRi ...
  • Информация
    Посетители, находящиеся в группе Гости, не могут оставлять комментарии к данной публикации.