вход на сайт

Имя пользователя :
Пароль :

Восстановление пароля Регистрация
Шпион, выйди вон! / Tinker Tailor Soldier Spy (Томас Альфредсон, триллер, детектив, 2011) [BDRip 720p, Дублированный + Оригинал + Субтитры]
Рейтинг:
(голосов: 1)



[img]{THEME}/images/logopost.png[/img]



Шпион, выйди вон! | Tinker Tailor Soldier Spy
«Секретная информация будет раскрыта»
Год выпуска: 2011
Страна: Германия Франция Великобритания
Производство: Canal+ [fr], Studio Canal, Paradis Films
Жанр: триллер, детектив

Режиссёр: Томас Альфредсон
В ролях: Гари Олдман, Колин Фёрт, Том Харди, Джон Хёрт, Тоби Джонс, Марк Стронг, Бенедикт Камбербэтч, Кьяран Хайндс, Константин Хабенский, Светлана Ходченкова

Перевод: Дублированный + Оригинал
Субтитры: Украинские, Английские [полные, UTF-8]

Описание: Многие сотрудники британской разведки догадывались, что в ее руководстве давно засел «крот», работающий на Россию. Но те, кто отваживался об этом заявлять открыто, почему-то оказывались в отставке. Остальные предпочитали помалкивать. Но подтверждение существования русского агента пришло с совсем неожиданной стороны. Начинается тайное расследование, возглавляемое находящимся в отставке Джорджем Смайли. И никто, включая высшее руководство разведки, не должен догадаться, что на крота снова объявлена охота.



Дата премьеры (мир): 5 сентября 2011
Дата премьеры (РФ): 8 декабря 2011, «Top Film Distribution»
Качество: BDRip 720p
Продолжительность: 02:07:22

Формат: MKV
Видео кодек: x264
Аудио кодек: AC3, DTS
Видео: 1 280x544 (2.35:1), 23.976 fps, x264 [email protected] ~6 604 kbps avg, 0.396 bit/pixel
Аудио #1: 48 kHz, AC3 Dolby Digital, 3/2 (L,C,R,l,r) + LFE ch, ~384.00 kbps
Аудио #2: 48 kHz, Digital Theater Systems, 3/2 (L,C,R,l,r) + LFE ch, ~754.00 kbps
MediaInfo ▼TextGeneral
Unique ID : 207314575717135892261693199139277150772 (0x9BF755BDDA078107B76964CE94AC9A34)
Complete name : /mnt/data/torrents/god_den/Shpion.vyjdi.von.2011.x264.BDRip.720p.IRONCLUB.mkv
Format : Matroska
Format version : Version 2
File size : 6.90 GiB
Duration : 2h 7mn
Overall bit rate : 7 756 Kbps
Movie name : Tinker Tailor Soldier Spy (2011) - Released by IronClub.TV
Encoded date : UTC 2012-01-13 13:54:14
Writing application : mkvmerge v4.9.1 (Ich will) сборка от Jul 11 2011 23:53:15
Writing library : libebml v1.2.1 + libmatroska v1.1.1

Video
ID : 1
Format : AVC
Format/Info : Advanced Video Codec
Format profile : [email protected]
Format settings, CABAC : Yes
Format settings, ReFrames : 5 frames
Codec ID : V_MPEG4/ISO/AVC
Duration : 2h 7mn
Bit rate : 6 604 Kbps
Width : 1 280 pixels
Height : 544 pixels
Display aspect ratio : 2.35:1
Frame rate : 23.976 fps
Color space : YUV
Chroma subsampling : 4:2:0
Bit depth : 8 bits
Scan type : Progressive
Bits/(Pixel*Frame) : 0.396
Stream size : 5.75 GiB (83%)
Title : Tinker Tailor Soldier Spy (2011) - Released by IronClub.TV
Writing library : x264 core 120 r2120 0c7dab9
Encoding settings : cabac=1 / ref=5 / deblock=1:0:0 / analyse=0x3:0x133 / me=umh / subme=7 / psy=1 / psy_rd=1.00:0.00 / mixed_ref=1 / me_range=16 / chroma_me=1 / trellis=1 / 8x8dct=1 / cqm=0 / deadzone=21,11 / fast_pskip=1 / chroma_qp_offset=-2 / threads=12 / sliced_threads=0 / nr=0 / decimate=1 / interlaced=0 / bluray_compat=0 / constrained_intra=0 / bframes=3 / b_pyramid=2 / b_adapt=2 / b_bias=0 / direct=3 / weightb=1 / open_gop=0 / weightp=2 / keyint=250 / keyint_min=23 / scenecut=40 / intra_refresh=0 / rc=2pass / mbtree=0 / bitrate=6604 / ratetol=1.0 / qcomp=0.60 / qpmin=0 / qpmax=69 / qpstep=4 / cplxblur=20.0 / qblur=0.5 / ip_ratio=1.40 / pb_ratio=1.30 / aq=1:1.00
Language : English

Audio #1
ID : 2
Format : AC-3
Format/Info : Audio Coding 3
Mode extension : CM (complete main)
Codec ID : A_AC3
Duration : 2h 7mn
Bit rate mode : Constant
Bit rate : 384 Kbps
Channel(s) : 6 channels
Channel positions : Front: L C R, Side: L R, LFE
Sampling rate : 48.0 KHz
Bit depth : 16 bits
Compression mode : Lossy
Stream size : 350 MiB (5%)
Title : DD 5.1 @ 384 Kbps - Dub, R5
Language : Russian

Audio #2
ID : 3
Format : DTS
Format/Info : Digital Theater Systems
Codec ID : A_DTS
Duration : 2h 7mn
Bit rate mode : Constant
Bit rate : 754 Kbps
Channel(s) : 6 channels
Channel positions : Front: L C R, Side: L R, LFE
Sampling
0fe9d90e168323ceb86a23682665d8c7fce0a74eШпион, выйди вон! / Tinker Tailor Soldier Spy (Томас Альфредсон, триллер, детектив, 2011) [BDRip 720p, Дублированный + Оригинал + Субтитры] Шпион, выйди вон! / Tinker Tailor Soldier Spy (Томас Альфредсон, триллер, детектив, 2011) [BDRip 720p, Дублированный + Оригинал + Субтитры] " />

Аплоадер: Админ, дата: 13-01-2012, 23:44, торрент скачан: 359 раз

Понравилась раздача? Посмотрите эти:
  • Гость / The Caller (Мэттью Паркхилл, триллер, детектив, 2011) [BDRip 720p, ...
  • Шпион, выйди вон! / Tinker Tailor Soldier Spy (Томас Альфредсон / Tomas Alf ...
  • Шпион, выйди вон! / Tinker Tailor Soldier Spy (Томас Альфредсон / Tomas Alf ...
  • Неизвестный / Unknown (Жауме Серра / Jaume Collet-Serra, триллер, драма, де ...
  • Красная шапочка / Red Riding Hood (Кэтрин Хардвик, ужасы, фэнтези, триллер, ...
  • Исходный код / Source Code (Дункан Джонс, фантастика, боевик, триллер, 2011 ...
  • Профессионал / Killer Elite (Гэри МакКендри, Боевик, Триллер, Криминал, 201 ...
  • Человек, который изменил всё / Moneyball (Беннетт Миллер, драма, биография, ...
  • Шпион, выйди вон! / Tinker Tailor Soldier Spy (Томас Альфредсон, триллер, д ...
  • Дом грёз / Dream House (Джим Шеридан, триллер, драма, детектив, 2011) [BDRi ...
  • Шпион, выйди вон! / Tinker Tailor Soldier Spy (Томас Альфредсон, триллер, д ...
  • «Весёлые» каникулы / Get the Gringo (Адриан Грюнберг, Боевик, комедия, 2012 ...
  • Ворон / The Raven (Джеймс МакТиг, Триллер, детектив, 2012) [BDRip 720p, Дуб ...
  • Хижина в лесу / The Cabin in the Woods (Дрю Годдард, Ужасы, фантастика, три ...
  • Красные огни / Red Lights (Родриго Кортес, Ужасы, триллер, драма, 2012) [BD ...
  • Судный день / The Day (Дуглас Арниокоски, Фантастика, триллер, драма, 2011) ...
  • Цунами 3D / Bait (Кимбл Рендалл, Ужасы, боевик, триллер, 2011) [BDRip 720p ...
  • Возлюбленные / Les bien-aimés (Кристоф Оноре, Драма, 2011) [BDRip 720p, Дуб ...
  • Джон Ле Карре. Шпион, выйди вон! / John le Carre. Tinker, Tailor, Soldier, ...
  • Шпион, выйди вон! / Tinker Tailor Soldier Spy (Томас Альфредсон / Tomas Alf ...
  • Шпион, выйди вон! / Tinker Tailor Soldier Spy (Томас Альфредсон / Tomas Alf ...
  • Шпион, выйди вон! / Tinker Tailor Soldier Spy (Томас Альфредсон / Tomas Alf ...
  • Шпион, выйди вон! / Tinker Tailor Soldier Spy (Томас Альфредсон, триллер, д ...
  • Шпион, выйди вон! / Tinker Tailor Soldier Spy (Томас Альфредсон, триллер, д ...
  • Шпион, выйди вон! / Tinker Tailor Soldier Spy (Томас Альфредсон, триллер, д ...
  • Информация
    Посетители, находящиеся в группе Гости, не могут оставлять комментарии к данной публикации.