вход на сайт

Имя пользователя :
Пароль :

Восстановление пароля Регистрация
Человек, который изменил всё / Moneyball (Беннетт Миллер, драма, биография, спорт, 2011) [BDRip 720p, Профессиональный (дублированный) + Оригинал + Субтитры]
Рейтинг:
(голосов: 1)



[img]{THEME}/images/logopost.png[/img]



Человек, который изменил всё| Moneyball
«А что в жизни сделал ты?»
Год выпуска: 2011
Страна: США
Производство: Film Rites, Scott Rudin Productions, Specialty Films (II)
Жанр: драма, биография, спорт

Режиссёр: Беннетт Миллер
В ролях: Брэд Питт, Джона Хилл, Филип Сеймур Хоффман, Робин Райт, Крис Прэтт, Стефен Бишоп, Брент Дженнингс, Кен Медлок, Тэмми Бланчард, Джек МакГ

Перевод: Профессиональный (дублированный) + Оригинал
Субтитры: Русские, Английские [полные, UTF-8]

Описание: Фильм по книге Майкла M. Льюиса, изданной в 2003 году, об Оклендской бейсбольной команде и ее генеральном менеджере, Билли Бине. Его цель - создать конкурентоспособную бейсбольную команду, несмотря на финансовые трудности.



Дата премьеры (мир): 9 сентября 2011
Дата премьеры (РФ): 20 октября 2011, «WDSSPR»

Качество: BDRip 720p
Продолжительность: 02:13:15

Формат: MKV
Видео кодек: H264
Аудио кодек: AC3
Видео: 1280x694 (16:9), 23.976 fps, H264 ~6830 kbps avg, 0.321 bit/pixel
Аудио #1: 48 kHz, AC3 Dolby Digital, 3/2 (L,C,R,l,r) + LFE ch, ~448.00 kbps avg
Аудио #2: 48 kHz, AC3 Dolby Digital, 3/2 (L,C,R,l,r) + LFE ch, ~1510.00 kbps avg
MediaInfo ▼TextGeneral
Unique ID : 176709817033821469957587361783645410806 (0x84F112A3A0B9E3308A6E97BF3DC715F6)
Complete name : /mnt/data/torrents/god_den/Moneyball.2011.BluRay.720p.DTS.x264-CHD.mkv
Format : Matroska
Format version : Version 2
File size : 8.34 GiB
Duration : 2h 13mn
Overall bit rate : 8 966 Kbps
Encoded date : UTC 2011-12-17 09:37:41
Writing application : mkvmerge v4.3.0 (Escape from the Island) сборка от Sep 5 2010 10:30:51
Writing library : libebml v1.0.0 + libmatroska v1.0.0

Video
ID : 1
Format : AVC
Format/Info : Advanced Video Codec
Format profile : [email protected]
Format settings, CABAC : Yes
Format settings, ReFrames : 9 frames
Codec ID : V_MPEG4/ISO/AVC
Duration : 2h 13mn
Bit rate : 7 005 Kbps
Width : 1 280 pixels
Height : 694 pixels
Display aspect ratio : 16:9
Frame rate : 23.976 fps
Color space : YUV
Chroma subsampling : 4:2:0
Bit depth : 8 bits
Scan type : Progressive
Bits/(Pixel*Frame) : 0.329
Stream size : 6.36 GiB (76%)
Writing library : x264 core 119 r2106 07efeb4
Encoding settings : cabac=1 / ref=9 / deblock=1:-3:-3 / analyse=0x3:0x113 / me=umh / subme=10 / psy=1 / psy_rd=1.10:0.15 / mixed_ref=1 / me_range=32 / chroma_me=1 / trellis=2 / 8x8dct=1 / cqm=2 / deadzone=21,11 / fast_pskip=0 / chroma_qp_offset=-2 / threads=12 / sliced_threads=0 / nr=0 / decimate=1 / interlaced=0 / bluray_compat=0 / constrained_intra=0 / bframes=6 / b_pyramid=2 / b_adapt=2 / b_bias=0 / direct=3 / weightb=1 / open_gop=0 / weightp=2 / keyint=250 / keyint_min=23 / scenecut=40 / intra_refresh=0 / rc_lookahead=60 / rc=2pass / mbtree=1 / bitrate=7005 / ratetol=1.0 / qcomp=0.60 / qpmin=1 / qpmax=63 / qpstep=4 / cplxblur=20.0 / qblur=0.5 / vbv_maxrate=40000 / vbv_bufsize=30000 / nal_hrd=none / ip_ratio=1.40 / aq=1:0.80
Language : English

Audio #1
ID : 2
Format : AC-3
Format/Info : Audio Coding 3
Mode extension : CM (complete main)
Codec ID : A_AC3
Duration : 2h 13mn
Bit rate mode : Constant
Bit rate : 448 Kbps
Channel(s) : 6 channels
Channel positions : Front: L C R, Side: L R, LFE
Sampling rate : 48.0 KHz
Bit depth : 16 bits
Compression mode : Lossy
Stream size : 427 MiB (5%)
Title : Дублированный
Language : Russian

Audio #2
ID : 3
Format : DTS
Format/Info : Digital Theater Systems
Codec ID : A_DTS
Duration : 2h 13mn
Bit rate mode : Constant
Bit rate : 1 510 Kbps
Channel(s) : 6 channels
Channel positions : Front: L C R, Side: L R, LFE
Sampling rate : 48.0 KHz
Bit depth : 24 bits
Compression mode : Lossy
Stream size : 1.41 GiB (17%)
Language : English

Text #1
ID : 4
Format : UTF-8
Codec ID : S_TEXT/UTF8
Codec ID/Info : UTF-8 Plain Text
Title : Forced
Language : Russian

Text #2
ID : 5
Format : UTF-8
Codec ID : S_TEXT/UTF8
Codec ID/Info : UTF-8 Plain Text
Language : English

ceab043921c0b55553015619361f6dbd79906c69Человек, который изменил всё / Moneyball (Беннетт Миллер, драма, биография, спорт, 2011) [BDRip 720p, Профессиональный (дублированный) + Оригинал + Субтитры] Человек, который изменил всё / Moneyball (Беннетт Миллер, драма, биография, спорт, 2011) [BDRip 720p, Профессиональный (дублированный) + Оригинал + Субтитры] " />

Аплоадер: Админ, дата: 10-01-2012, 15:20, торрент скачан: 359 раз

Понравилась раздача? Посмотрите эти:
  • 42 / 42 (Брайан Хелгеленд, Драма, биография, спорт, 2013) [BDRip 720p, Проф ...
  • Человек, который изменил всё / Moneyball (Беннетт Миллер, драма, биография, ...
  • Суррогат / The Sessions (Бен Луин, драма, 2012) [BDRip 720p, Профессиональн ...
  • Человек, который изменил всё / Moneyball (Беннетт Миллер, Драма, 2011) [BDR ...
  • Человек, который изменил всё / Moneyball (Беннетт Миллер, драма, биография, ...
  • Человек, который изменил всё / Moneyball (Беннетт Миллер, драма, биография, ...
  • Человек, который изменил всё / Moneyball (Беннетт Миллер, драма, биография, ...
  • Мартовские иды / The Ides of March (Джордж Клуни / George Clooney, драма, 2 ...
  • Человек, который изменил всё / Moneyball (Беннетт Миллер, драма, биография, ...
  • Исходный код / Source Code (Дункан Джонс, фантастика, боевик, триллер, 2011 ...
  • Бобер / The Beaver (Джоди Фостер, драма, 2011) [BDRip 720p, Дубляж + Оригин ...
  • Дети шпионов 4D / Spy Kids: All the Time in the World in 4D (Роберт Родриге ...
  • Человек, который изменил всё / Moneyball (Беннетт Миллер, Драма, 2011) [BDR ...
  • Профессионал / Killer Elite (Гэри МакКендри, Боевик, Триллер, Криминал, 201 ...
  • Дом грёз / Dream House (Джим Шеридан, триллер, драма, детектив, 2011) [BDRi ...
  • Рыжий пес / Red Dog (Крив Стендерс, драма, комедия, семейный, 2011) [BDRip ...
  • Домашняя работа / The Art of Getting By (Гэвин Вьесен, драма, мелодрама, 20 ...
  • Мачо и ботан / 21 Jump Street (Фил Лорд, Крис Миллер, боевик, комедия, 2012 ...
  • Mylene Farmer / Du Temps [2011, Pop, HDTVRip]
  • Человек, который изменил всё / Moneyball (Беннетт Миллер, драма, биография, ...
  • Человек, который изменил всё / Moneyball (Беннетт Миллер, драма, биография, ...
  • Человек, который изменил всё / Moneyball (Беннетт Миллер, драма, биография, ...
  • Человек, который изменил всё / Moneyball (Беннетт Миллер, драма, биография, ...
  • Человек, который изменил всё / Moneyball (Беннетт Миллер, драма, биография, ...
  • Человек, который изменил всё / Moneyball (Беннетт Миллер. драма, биография ...
  • Информация
    Посетители, находящиеся в группе Гости, не могут оставлять комментарии к данной публикации.