вход на сайт

Имя пользователя :
Пароль :

Восстановление пароля Регистрация
Профессионал / Killer Elite (Гэри МакКендри, Боевик, Триллер, Криминал, 2011) [BDRip 1080p, Дублированный + Оригинал + Sub (Rus, Eng)]
Рейтинг:
(голосов: 1)



[img]{THEME}/images/logopost.png[/img]



Профессионал | Killer Elite
«May the Best Man Live»
Год выпуска: 2011
Страна: США Австралия
Производство: Omnilab Media, Ambience Entertainment
Жанр: Боевик, Триллер, Криминал

Режиссёр: Гэри МакКендри
В ролях: Джейсон Стэтхэм, Клайв Оуэн, Роберт Де Ниро, Ивонн Страховски, Доминик Пурселл, Адевале Акиннуойе-Агбадже, Майкл Дорман, Грант Боулер, Бен Мендельсон, Кристи Барнс Каллен

Перевод: Дублированный+ Оригинал
Субтитры: Русский, Английские [полные, UTF-8]

Описание: Бывшему бойцу британских силовых структур приходится забыть о тихой размеренной жизни отставника, когда его лучший друг оказывается в опасности.

Дата премьеры (мир): 10 сентября 2011
Дата премьеры (РФ): 22 сентября 2011, «Централ Партнершип»
Качество: BDRip 1080p
Продолжительность: 01:51:32.399 (167310 frames)

Формат: MKV
Видео кодек: x264
Аудио кодек: AC3, DTS
Видео: 1920X796 (2,40:1), 23.976 fps, ~14503 kbps avg, 0.396 bit/pixel
Аудио #1: 48 kHz, AC3, 3/2 (L,C,R,l,r) + LFE ch, ~448.00 kbps |Дублированный R5 [лицензия]
Аудио #2: 48 kHz, DTS, 3/2 (L,C,R,l,r) + LFE ch, ~1510.00 kbps | Оригинал
MediaInfo ▼Text
General
Unique ID : 192802337814805547298050230133484116032 (0x910C612BCC0A9FB5B6DB4A8D0E9F5840)
Complete name : /mnt/data/torrents/god_den/Killer.Elite.2011.BluRay.1080p.DTS.x264-CHD.mkv
Format : Matroska
Format version : Version 2
File size : 13.4 GiB
Duration : 1h 56mn
Overall bit rate : 16.5 Mbps
Movie name : -Talian-
Encoded date : UTC 2012-01-05 07:11:34
Writing application : mkvmerge v5.0.1 (Es ist Sommer) built on Oct 9 2011 11:55:43
Writing library : libebml v1.2.2 + libmatroska v1.3.0

Video
ID : 1
Format : AVC
Format/Info : Advanced Video Codec
Format profile : [email protected]
Format settings, CABAC : Yes
Format settings, ReFrames : 5 frames
Codec ID : V_MPEG4/ISO/AVC
Duration : 1h 56mn
Bit rate : 14.5 Mbps
Width : 1 920 pixels
Height : 796 pixels
Display aspect ratio : 2.40:1
Frame rate : 23.976 fps
Color space : YUV
Chroma subsampling : 4:2:0
Bit depth : 8 bits
Scan type : Progressive
Bits/(Pixel*Frame) : 0.396
Stream size : 11.6 GiB (86%)
Title : Killer.Elite.2011.BluRay.1080p.DTS.x264-CHD
Writing library : x264 core 116 r2074 2641b9e
Encoding settings : cabac=1 / ref=5 / deblock=1:-3:-3 / analyse=0x3:0x113 / me=umh / subme=11 / psy=1 / psy_rd=1.00:0.05 / mixed_ref=1 / me_range=32 / chroma_me=1 / trellis=2 / 8x8dct=1 / cqm=2 / deadzone=21,11 / fast_pskip=0 / chroma_qp_offset=-2 / threads=8 / sliced_threads=0 / nr=0 / decimate=1 / interlaced=0 / bluray_compat=0 / constrained_intra=0 / bframes=6 / b_pyramid=2 / b_adapt=2 / b_bias=0 / direct=3 / weightb=1 / open_gop=0 / weightp=2 / keyint=250 / keyint_min=23 / scenecut=40 / intra_refresh=0 / rc_lookahead=50 / rc=2pass / mbtree=1 / bitrate=14503 / ratetol=1.0 / qcomp=0.70 / qpmin=1 / qpmax=63 / qpstep=4 / cplxblur=20.0 / qblur=0.5 / vbv_maxrate=40000 / vbv_bufsize=40000 / nal_hrd=none / ip_ratio=1.40 / aq=2:0.90
Language : English

Audio #1
ID : 2
Format : AC-3
Format/Info : Audio Coding 3
Mode extension : CM (complete main)
Codec ID : A_AC3
Duration : 1h 56mn
Bit rate mode : Constant
Bit rate : 448 Kbps
Channel(s) : 6 channels
Channel positions : Front: L C R, Side: L R, LFE
Sampling rate : 48.0 KHz
Bit depth : 16 bits
Compression mode : Lossy
Stream size : 374 MiB (3%)
Title : DUB-R5
Language : Russian

Audio #2
ID : 3
Format : DTS
Format/Info : Digital Theater Systems
Codec ID : A_DTS
Duration : 1h 56mn
Bit rate mode : Constant
Bit rate : 1 510 Kbps
Channel(s) : 6 channels
Channel positions : Front: L C R, Side: L R, LFE
Sampling rate : 48.0 KHz
Bit depth : 24 bits
Compression mode : Lossy
Stream size : 1.23 GiB (9%)
Title : Original
Language : English

Text #1
ID : 4
Format : UTF-8
Codec ID : S_TEXT/UTF8
Codec ID/Info : UTF-8 Plain Text
Title : Sub
Language : Russian

Text #2
ID : 5
Format : UTF-8
Codec ID : S_TEXT/UTF8
Codec ID/Info : UTF-8 Plain Text
Title : Sub
Language : English
647e874f460cd972be9c1606400fa2a50c173a68Профессионал / Killer Elite (Гэри МакКендри, Боевик, Триллер, Криминал, 2011) [BDRip 1080p, Дублированный + Оригинал + Sub (Rus, Eng)] Профессионал / Killer Elite (Гэри МакКендри, Боевик, Триллер, Криминал, 2011) [BDRip 1080p, Дублированный + Оригинал + Sub (Rus, Eng)] " />

Аплоадер: Админ, дата: 7-01-2012, 17:41, торрент скачан: 359 раз

Понравилась раздача? Посмотрите эти:
  • Профессионал / Killer Elite (Гэри МакКендри, Боевик, триллер, криминал, 201 ...
  • Хроника / Chronicle (Джошуа Транк, фантастика, боевик, триллер, драма, 2012 ...
  • Профессионал / Killer Elite (Гэри МакКендри , боевик, триллер, криминал, 20 ...
  • Профессионал / Killer Elite (Гэри МакКендри , боевик, триллер, криминал, 20 ...
  • Профессионал / Killer Elite (Гэри МакКендри, боевик, 2011) [BDRip-AVC, Проф ...
  • Бедная богатая девочка / Young Adult (Джейсон Райтман, драма, комедия, 2011 ...
  • Исходный код / Source Code (Дункан Джонс, фантастика, боевик, триллер, 2011 ...
  • Профессионал / Killer Elite (Гэри МакКендри, боевик, триллер, криминал, 201 ...
  • Человек, который изменил всё / Moneyball (Беннетт Миллер, драма, биография, ...
  • Хижина в лесу / The Cabin in the Woods (Дрю Годдард, Ужасы, фантастика, три ...
  • Mylene Farmer / Du Temps [2011, Pop, HDTVRip]
  • Профессионал / Killer Elite (Гэри МакКендри, боевик, триллер, криминал, 201 ...
  • Профессионал / Killer Elite (Гэри МакКендри , боевик, триллер, криминал, 20 ...
  • Профессионал / Killer Elite (Гэри МакКендри, боевик, триллер, криминал, 201 ...
  • [iPhone, iPod, iPad]Профессионал / Killer Elite (Гэри МакКендри / Gary McKe ...
  • Профессионал / Killer Elite (Гэри МакКендри , боевик, триллер, криминал, 20 ...
  • Профессионал / Killer Elite (Гэри МакКендри, боевик, триллер, криминал, 201 ...
  • Профессионал / Killer Elite (Гэри МакКендри / Gary McKendry, боевик, трилле ...
  • Профессионал / Killer Elite (Гэри МакКендри, боевик, триллер, криминал, 201 ...
  • Профессионал / Killer Elite (Гэри МакКендри / Gary McKendry, боевик, трилле ...
  • Информация
    Посетители, находящиеся в группе Гости, не могут оставлять комментарии к данной публикации.