вход на сайт

Имя пользователя :
Пароль :

Восстановление пароля Регистрация
Заражение / Contagion (Стивен Содерберг, Фантастика, 2011) [BDRip 1080p, Профессиональный (дублированный), Оригинал, субтитры]
Рейтинг:
(голосов: 1)



[img]{THEME}/images/logopost.png[/img]



Заражение / Contagion

Год выпуска: 2011
Страна: США, ОАЭ
Производство: Paramount Picture
Жанр: Фантастика, триллер

Режиссёр: Стивен Содерберг / Steven Soderbergh
В ролях: Мэтт Дэймон, Марион Котийяр, Джуд Лоу, Гвинет Пэлтроу, Кейт Уинслет, Дженнифер Эль, Лоренс Фишбёрн, Брайан Крэнстон, Джон Хоукс, Санаа Лэтэн и др.

Перевод: Профессиональный (дублированный) [Лицензия], Оригинал
Субтитры: английские

Описание: Международная организация врачей совместно с Центром по контролю и профилактике заболеваний США пытается помешать распространению смертельного вируса.



"MediaInfo" ▼Общее
Уникальный идентификатор : 250556930418045189215241485671070237817 (0xBC7F826F060CF3BD87576F73C8990479)
Полное имя : D:VideoZarazhenie.2011.x264.BDRip(1080p).mkv
Формат : Matroska
Версия формата : Version 2
Размер файла : 7,99 Гбайт
Продолжительность : 1 ч. 46 м.
Общий поток : 10,7 Мбит/сек
Дата кодирования : UTC 2011-12-20 17:15:05
Программа кодирования : mkvmerge v5.2.0 (I cant explain) built on Dec 18 2011 18:12:03
Библиотека кодирования : libebml v1.2.3 + libmatroska v1.3.0
Видео
Идентификатор : 1
Формат : AVC
Формат/Информация : Advanced Video Codec
Профиль формата : [email protected]
Параметр CABAC формата : Да
Параметр ReFrames формата : 4 кадра
Идентификатор кодека : V_MPEG4/ISO/AVC
Продолжительность : 1 ч. 46 м.
Битрейт : 8784 Кбит/сек
Ширина : 1920 пикселей
Высота : 1080 пикселей
Соотношение сторон : 16:9
Частота кадров : 23,976 кадра/сек
Цветовое пространство : YUV
Субдискретизация насыщенности : 4:2:0
Битовая глубина : 8 бит
Тип развёртки : Прогрессивная
Бит/(Пиксели*Кадры) : 0.177
Размер потока : 6,37 Гбайт (80%)
Библиотека кодирования : x264 core 120 r2120 0c7dab9
Настройки программы : cabac=1 / ref=4 / deblock=1:0:0 / analyse=0x3:0x113 / me=umh / subme=8 / psy=1 / psy_rd=1.00:0.00 / mixed_ref=1 / me_range=16 / chroma_me=1 / trellis=1 / 8x8dct=1 / cqm=0 / deadzone=21,11 / fast_pskip=1 / chroma_qp_offset=-2 / threads=12 / sliced_threads=0 / nr=0 / decimate=1 / interlaced=0 / bluray_compat=0 / constrained_intra=0 / bframes=3 / b_pyramid=2 / b_adapt=2 / b_bias=0 / direct=3 / weightb=1 / open_gop=0 / weightp=2 / keyint=240 / keyint_min=24 / scenecut=40 / intra_refresh=0 / rc_lookahead=50 / rc=2pass / mbtree=1 / bitrate=8784 / ratetol=1.0 / qcomp=0.60 / qpmin=0 / qpmax=69 / qpstep=4 / cplxblur=20.0 / qblur=0.5 / ip_ratio=1.40 / aq=1:1.00
Язык : English
Default : Да
Forced : Нет
Аудио #1
Идентификатор : 2
Формат : AC-3
Формат/Информация : Audio Coding 3
Расширение режима : CM (complete main)
Идентификатор кодека : A_AC3
Продолжительность : 1 ч. 46 м.
Вид битрейта : Постоянный
Битрейт : 448 Кбит/сек
Каналы : 6 каналов
Расположение каналов : Front: L C R, Side: L R, LFE
Частота : 48,0 КГц
Битовая глубина : 16 бит
Метод сжатия : С потерями
Размер потока : 341 Мбайт (4%)
Заголовок : DUB
Язык : Russian
Default : Да
Forced : Нет
Аудио #2
Идентификатор : 3
Формат : DTS
Формат/Информация : Digital Theater Systems
Идентификатор кодека : A_DTS
Продолжительность : 1 ч. 46 м.
Вид битрейта : Постоянный
Битрейт : 1510 Кбит/сек
Каналы : 6 каналов
Расположение каналов : Front: L C R, Side: L R, LFE
Частота : 48,0 КГц
Битовая глубина : 24 бит
Метод сжатия : С потерями
Размер потока : 1,12 Гбайт (14%)
Заголовок : Original
Язык : English
Default : Нет
Forced : Нет
Текст
Идентификатор : 4
Формат : UTF-8
Идентификатор кодека : S_TEXT/UTF8
Идентификатор кодека/Информация : UTF-8 Plain Text
Язык : English
Default : Нет
Forced : Нет


Качество: BDRip 1080p
Продолжительность: 01:46:25

Формат: MKV
Видео кодек: MPEG-4 AVC
Аудио кодек: AC3, DTS
Видео: 8784 Кбит/с, 1920x1080 (16:9), 23,976 кадра/сек, 0,177 bit/pix
Аудио#1: Русский (AC3 / 6ch / 48 kHz / 448 kbps / 16-bit)
Аудио#2: Английский (DTS / 6ch / 48 kHz / 1536 kbps / 24-bit)


Стол заказов POWER | Отзывы | Вступление в POWER


5a169da221d4ff37ab9a615f446d3f5aa4ee8018Заражение / Contagion (Стивен Содерберг, Фантастика, 2011) [BDRip 1080p, Профессиональный (дублированный), Оригинал, субтитры] Заражение / Contagion (Стивен Содерберг, Фантастика, 2011) [BDRip 1080p, Профессиональный (дублированный), Оригинал, субтитры] " />

Аплоадер: Админ, дата: 2-01-2012, 18:07, торрент скачан: 359 раз

Понравилась раздача? Посмотрите эти:
  • Заклятие / The Conjuring (Джеймс Ван, ужасы, триллер, 2013) [BDRip 1080p, Д ...
  • Исходный код / Source Code (Дункан Джонс, фантастика, боевик, триллер, драм ...
  • Начинающие / Beginners (Майк Миллс / Mike Mills, драма, мелодрама, комедия, ...
  • Главное - не бояться! / A Little Bit of Heaven (Николь Кэссел / Nicole Kass ...
  • Заражение / Contagion (Стивен Содерберг, триллер, драма, 2011) [BDRip-AVC, ...
  • Заражение / Contagion (Стивен Содерберг / Steven Soderbergh, фантастика, тр ...
  • Заражение / Contagion (Стивен Содерберг, Триллер, 2011) [BDRip - AVC, Дубля ...
  • Переростки / The Inbetweeners (Бен Палмер, Комедия, 2011) [BDRip-AVC, Профе ...
  • Заражение / Contagion (Стивен Содерберг / Steven Soderbergh, фантастика, тр ...
  • Заражение / Contagion (Стивен Содерберг, триллер, драма, 2011) [BDRip 720p, ...
  • Заражение / Contagion (Стивен Содерберг, триллер, драма, 2011) [BDRemux 108 ...
  • Последняя любовь на Земле / Perfect Sense (Дэвид МакКензи, фантастика, драм ...
  • Павшая империя / Hirokin (Алехо Мо-Сан, фантастика, боевик, драма, приключе ...
  • Невероятный Халк / The Incredible Hulk (Луи Летерье, фантастика, боевик, тр ...
  • [Iphone/Ipad/Ipod]Заражение / Contagion (Стивен Содерберг / Steven Soderber ...
  • Заражение / Contagion (Стивен Содерберг, триллер, драма, 2011) [HDRip, Дубл ...
  • Заражение / Contagion (Стивен Содерберг, триллер, драма, 2011) [HDRip, Дубл ...
  • Заражение / Contagion (Стивен Содерберг, триллер, драма, 2011) [HDRip, Проф ...
  • Заражение / Contagion (Стивен Содерберг, триллер, драма, 2011г) [320x240] [ ...
  • Девичник в Вегасе / Bridesmaids (Пол Фейг / Paul Feig, комедия, 2011) [BDRi ...
  • Информация
    Посетители, находящиеся в группе Гости, не могут оставлять комментарии к данной публикации.