вход на сайт

Имя пользователя :
Пароль :

Восстановление пароля Регистрация
Я не знаю, как она делает это / I Dont Know How She Does It (Дуглас МакГрат / Douglas McGrath, комедия, 2011) [BDRip 1080p, Дублированный + Оригинал + Субтитры (rom)]
Рейтинг:
(голосов: 1)



[img]{THEME}/images/logopost.png[/img]



Я не знаю, как она делает это / I Dont Know How She Does It
«Мужчинам это не по зубам»

Год выпуска: 2011
Страна: США
Производство: Weinstein Company
Жанр: комедия

Режиссёр: Дуглас МакГрат / Douglas McGrath
В ролях: Сара Джессика Паркер (Kate Reddy), Пирс Броснан (Jack Abelhammer), Грег Киннер (Richard Reddy), Кристина Хендрикс (Allison Henderson), Келси Грэммер (Clark Cooper), Сет Майерс (Chris Bunce), Оливия Манн (Momo Hahn), Джейн Куртин (Marla Reddy), Марк Блум (Lew Reddy), Бизи Филиппс (Wendy Best), Сара Шахи (Janine LoPietro), Джессика Зор (Paula)

Перевод: Дублированный [лицензия] + Оригинал (английский)
Субтитры: Румынские [UTF-8]

Описание: Кейт - фондовый менеджер и мать двоих детей. В отличие от мужчин, которые не могут делать два дела одновременно, Кейт сразу может делать сто: менять пеленки, продавать и покупать акции, выяснять отношения с мужем, отбиваться от тупого босса и много чего еще. Жизнь Кейт - это череда смешных, неловких и нелепых ситуаций, в которые она постоянно попадает в попытках втиснуть две жизни в одну. Превосходная комедия, после которой многие женщины задумаются о переменах в своей жизни, а мужчины посмотрят на своих подруг по-другому.Дата премьеры (мир): 15 сентября 2011
Дата премьеры (РФ): 15 сентября 2011, «Top Film Distribution»
Качество: BDRip 1080p
Продолжительность: 01:25:49

Формат: MKV
Видео кодек: x264
Аудио кодек: AC3, DTS
Видео: 1 920x1080 (16:9), 23.976 fps, 11.2 Mbps avg, 0.225 bit/pixel
Аудио1: 48 kHz, 6 channels (Front: L C R, Side: L R, LFE), 448.00 kbps avg
Аудио2: 48 kHz, 6 channels (Front: L C R, Side: L R, LFE), 1510.00 kbps avg
MediaInfo ▼TextVideo
ID : 1
Format : AVC
Format/Info : Advanced Video Codec
Format profile : [email protected]
Format settings, CABAC : Yes
Format settings, ReFrames : 4 frames
Codec ID : V_MPEG4/ISO/AVC
Duration : 1h 29mn
Bit rate : 11.2 Mbps
Width : 1 920 pixels
Height : 1 080 pixels
Display aspect ratio : 16:9
Frame rate : 23.976 fps
Color space : YUV
Chroma subsampling : 4:2:0
Bit depth : 8 bits
Scan type : Progressive
Bits/(Pixel*Frame) : 0.225
Stream size : 6.84 GiB (83%)
Writing library : x264 core 120 r2120 0c7dab9
Encoding settings : cabac=1 / ref=4 / deblock=1:0:0 / analyse=0x3:0x133 / me=umh / subme=8 / psy=1 / psy_rd=1.00:0.00 / mixed_ref=1 / me_range=16 / chroma_me=1 / trellis=1 / 8x8dct=1 / cqm=0 / deadzone=21,11 / fast_pskip=0 / chroma_qp_offset=-2 / threads=12 / sliced_threads=0 / nr=0 / decimate=1 / interlaced=0 / bluray_compat=0 / constrained_intra=0 / bframes=3 / b_pyramid=2 / b_adapt=2 / b_bias=0 / direct=3 / weightb=1 / open_gop=0 / weightp=2 / keyint=250 / keyint_min=23 / scenecut=40 / intra_refresh=0 / rc_lookahead=50 / rc=2pass / mbtree=1 / bitrate=11211 / ratetol=1.0 / qcomp=0.60 / qpmin=0 / qpmax=69 / qpstep=4 / cplxblur=20.0 / qblur=0.5 / ip_ratio=1.40 / aq=1:1.00
Language : English

Audio #1
ID : 2
Format : AC-3
Format/Info : Audio Coding 3
Mode extension : CM (complete main)
Codec ID : A_AC3
Duration : 1h 29mn
Bit rate mode : Constant
Bit rate : 448 Kbps
Channel(s) : 6 channels
Channel positions : Front: L C R, Side: L R, LFE
Sampling rate : 48.0 KHz
Bit depth : 16 bits
Compression mode : Lossy
Delay relative to video : 24ms
Stream size : 287 MiB (3%)
Title : DUB (R5)
Language : Russian

Audio #2
ID : 3
Format : DTS
Format/Info : Digital Theater Systems
Codec ID : A_DTS
Duration : 1h 29mn
Bit rate mode : Constant
Bit rate : 1 510 Kbps
Channel(s) : 6 channels
Channel positions : Front: L C R, Side: L R, LFE
Sampling rate : 48.0 KHz
Bit depth : 24 bits
Compression mode : Lossy
Delay relative to video : 11ms
Stream size : 966 MiB (11%)
Language : English

Text
ID : 4
Format : UTF-8
Codec ID : S_TEXT/UTF8
Codec ID/Info : UTF-8 Plain Text
Title : Romanian
Language : Romanian





05632a7b638dc811addb11351f13b0b8d53ad79fЯ не знаю, как она делает это / I Dont Know How She Does It (Дуглас МакГрат / Douglas McGrath, комедия, 2011) [BDRip 1080p, Дублированный + Оригинал + Субтитры (rom)] Я не знаю, как она делает это / I Dont Know How She Does It (Дуглас МакГрат / Douglas McGrath, комедия, 2011) [BDRip 1080p, Дублированный + Оригинал + Субтитры (rom)] " />

Аплоадер: Админ, дата: 29-12-2011, 02:15, торрент скачан: 359 раз

Понравилась раздача? Посмотрите эти:
  • Грязь / Filth (Джон С. Бейрд, криминал, драма, комедия, 2013) [BDRip-AVC, ...
  • Пастырь / Priest (Скотт Чарльз Стюарт, ужасы, фантастика, боевик, триллер, ...
  • Жизнь Пи / Life Of Pi (Энг Ли, Драма, приключения, 2012) [BDRip 1080p, Проф ...
  • Я не знаю, как она делает это / I Dont Know How She Does It (Дуглас МакГрат ...
  • Я не знаю, как она делает это / I Dont Know How She Does It ( Дуглас МакГра ...
  • Я не знаю, как она делает это / I Dont Know How She Does It ( Дуглас МакГра ...
  • Я не знаю, как она делает это / I Dont Know How She Does It ( Дуглас МакГра ...
  • Персонаж / Stranger Than Fiction (Марк Форстер, Комедия, драма, фантастика, ...
  • Бедная богатая девочка / Young Adult (Джейсон Райтман, драма, комедия, 2011 ...
  • Вампирский засос / Vampires Suck (Джейсон Фридберг, Аарон Зельцер, комедия, ...
  • Робин Гуд [Режиссёрская версия] / Robin Hood [Directors Cut] (Ридли Скотт / ...
  • Сутенер / Le mac (Паскаль Бюрдо / Pascal Bourdiaux, комедия, криминал, 2010 ...
  • Я не знаю, как она делает это / I Dont Know How She Does It (Дуглас МакГрат ...
  • Исходный код / Source Code (Дункан Джонс, фантастика, боевик, триллер, 2011 ...
  • Ледниковый период: Гигантское Рождество / Ice Age: A Mammoth Christmas (Кар ...
  • Профессионал / Killer Elite (Гэри МакКендри, Боевик, Триллер, Криминал, 201 ...
  • Человек, который изменил всё / Moneyball (Беннетт Миллер, драма, биография, ...
  • Я не знаю, как она делает это / I Dont Know How She Does It (Дуглас МакГрат ...
  • Рыжий пес / Red Dog (Крив Стендерс, драма, комедия, семейный, 2011) [BDRip ...
  • Рыжий пес / Red Dog (Крив Стендерс, драма, комедия, семейный, 2011) [BDRip ...
  • Ворон / The Raven (Джеймс МакТиг, Триллер, детектив, 2012) [BDRip 720p, Дуб ...
  • Супер Майк / Magic Mike (Стивен Содерберг, Драма, комедия, 2012) [BDRip 108 ...
  • Mylene Farmer / Du Temps [2011, Pop, HDTVRip]
  • Нет мужчин - нет проблем / Without Men (Габриела Тальявини / Gabriela Tagli ...
  • Сверхновый Супермен / All-Star Superman (Сэм Лью, мультфильм, фантастика, б ...
  • Информация
    Посетители, находящиеся в группе Гости, не могут оставлять комментарии к данной публикации.