вход на сайт

Имя пользователя :
Пароль :

Восстановление пароля Регистрация
Двойник дьявола / The Devils Double (Ли Тамахори, драма, биография, 2011) [BDRip 1080p, Дубляж + Одноголосый (Zamez) + оригинал + субтитры]
Рейтинг:
(голосов: 1)



[img]{THEME}/images/logopost.png[/img]



Двойник дьявола / The Devils Double

«Секс... власть... куча денег, что ещё нужно принцу у которого есть всё?»

Год выпуска: 2011
Страна: Нидерланды Бельгия
Производство: Corrino Media Corporation
Жанр: драма, биография

Режиссёр: Ли Тамахори
В ролях: Доминик Купер, Людивин Санье, Раад Рави, Мем Ферда, Дар Салим, Халид Лэйт, Пано Масти, Нассер Мемарзиа Филип Куэст, Селва Расалингам

Перевод: Профессиональный (полное дублирование, Blu-Ray RUS) + одноголосый Zamez(без цензуры) + одноголосый Zamez(цензура) + оригинал
Субтитры:русские(BD,Voronine),украинские, английскиe

Описание
Секс… Власть… Слишком много денег… Что еще может понадобиться «Принцу», у которого есть все? Разве что двойник.
На него можно спихнуть всю рутину, а в опасных ситуациях он примет удар на себя. Но и Двойник не останется без награды — он получит все, что есть у принца. Все, кроме женщины, которая станет единственным, что Двойник по-настоящему возжелает.



Доп. информация

Премьеры ▼премьера (мир) 22 января 2011
премьера (РК) 11 августа 2011

Рейтинг MPAA ▼
лицам до 17 лет обязательно присутствие взрослого

MediaInfo ▼TextGeneral
Unique ID : 226076478162344389325022489025399335463 (0xAA14BEF365AF37648A5F19BBB559AA27)
Complete name : D:DownloadsВидеоРипыThe Devils Double 2011 BluRay 1080p DTS x264-CHD.mkv
Format : Matroska
File size : 12.2 GiB
Duration : 1h 48mn
Overall bit rate : 16.0 Mbps
Movie name : -Talian-
Encoded date : UTC 2011-12-10 11:45:46
Writing application : mkvmerge v5.0.1 (Es ist Sommer) built on Oct 9 2011 11:55:43
Writing library : libebml v1.2.2 + libmatroska v1.3.0
Video
ID : 1
Format : AVC
Format/Info : Advanced Video Codec
Format profile : [email protected]
Format settings, CABAC : Yes
Format settings, ReFrames : 5 frames
Codec ID : V_MPEG4/ISO/AVC
Duration : 1h 48mn
Bit rate : 9 943 Kbps
Width : 1 920 pixels
Height : 816 pixels
Display aspect ratio : 2.35:1
Frame rate : 23.976 fps
Color space : YUV
Chroma subsampling : 4:2:0
Bit depth : 8 bits
Scan type : Progressive
Bits/(Pixel*Frame) : 0.265
Stream size : 7.32 GiB (60%)
Title : The Devils Double 2011 BluRay 1080p DTS x264-CHD
Writing library : x264 core 118 r2085+614 d1cc25d
Encoding settings : cabac=1 / ref=5 / deblock=1:-3:-3 / analyse=0x3:0x113 / me=umh / subme=10 / psy=1 / fade_compensate=0.00 / psy_rd=1.05:0.10 / mixed_ref=1 / me_range=48 / chroma_me=1 / trellis=2 / 8x8dct=1 / cqm=1 / deadzone=21,11 / fast_pskip=0 / chroma_qp_offset=-2 / threads=12 / sliced_threads=0 / nr=0 / decimate=1 / interlaced=0 / bluray_compat=0 / constrained_intra=0 / fgo=0 / bframes=6 / b_pyramid=2 / b_adapt=2 / b_bias=0 / direct=3 / weightb=1 / open_gop=0 / weightp=2 / keyint=250 / keyint_min=23 / scenecut=40 / intra_refresh=0 / rc_lookahead=60 / rc=2pass / mbtree=1 / bitrate=9943 / ratetol=2.0 / qcomp=0.70 / qpmin=3 / qpmax=69 / qpstep=4 / cplxblur=20.0 / qblur=0.5 / vbv_maxrate=40000 / vbv_bufsize=30000 / nal_hrd=none / ip_ratio=1.40 / aq=2:1.00
Language : English
Audio #1
ID : 2
Format : DTS
Format/Info : Digital Theater Systems
Codec ID : A_DTS
Duration : 1h 48mn
Bit rate mode : Constant
Bit rate : 1 510 Kbps
Channel(s) : 6 channels
Channel positions : Front: L C R, Side: L R, LFE
Sampling rate : 48.0 KHz
Bit depth : 24 bits
Compression mode : Lossy
Stream size : 1.15 GiB (9%)
Title : DUB- Blu-ray
Language : Russian
Audio #2
ID : 3
Format : DTS
Format/Info : Digital Theater Systems
Codec ID : A_DTS
Duration : 1h 48mn
Bit rate mode : Constant
Bit rate : 1 510 Kbps
Channel(s) : 6 channels
Channel positions : Front: L C R, Side: L R, LFE
Sampling rate : 48.0 KHz
Bit depth : 24 bits
Compression mode : Lossy
Stream size : 1.15 GiB (9%)
Title : VO-Zamez[без цензуры]
Language : Russian
Audio #3
ID : 4
Format : DTS
Format/Info : Digital Theater Systems
Codec ID : A_DTS
Duration : 1h 48mn
Bit rate mode : Constant
Bit rate : 1 510 Kbps
Channel(s) : 6 channels
Channel positions : Front: L C R, Side: L R, LFE
Sampling rate : 48.0 KHz
Bit depth : 24
61cb7620a4a7df293fc09a9ba0cdfe568d4b7ccbДвойник дьявола / The Devils Double (Ли Тамахори, драма, биография, 2011) [BDRip 1080p, Дубляж + Одноголосый (Zamez) + оригинал + субтитры] Двойник дьявола / The Devils Double (Ли Тамахори, драма, биография, 2011) [BDRip 1080p, Дубляж + Одноголосый (Zamez) + оригинал + субтитры] " />

Аплоадер: Админ, дата: 11-12-2011, 18:35, торрент скачан: 359 раз

Понравилась раздача? Посмотрите эти:
  • Хичкок / Hitchcock (Саша Джерваси, Драма, история, биография, 2012) [BDRip ...
  • Двойник дьявола / The Devils Double (Ли Тамахори, боевик, драма, биография, ...
  • Двойник дьявола / The Devils Double (Ли Тамахори, драма, биография, 2011) [ ...
  • Двойник дьявола / The Devils Double (Ли Тамахори,драма, биография, 2011) [H ...
  • Двойник дьявола / The Devils Double (Ли Тамахори,драма, биография, 2011) [H ...
  • Двойник дьявола / The Devils Double (Ли Тамахори, драма, биография, 2011) [ ...
  • Идеальный Голос / Pitch Perfect (Джейсон Мур, Комедия, музыка, 2012) [BDRip ...
  • Король говорит! / The Kings Speech (Том Хупер, драма, биография, история, 2 ...
  • Мальчишник 2: Из Вегаса в Бангкок / The Hangover Part II (Тодд Филлипс, ком ...
  • Ларри Краун / Larry Crowne (Том Хэнкс, драма, мелодрама, комедия, 2011) [BD ...
  • Восстание планеты обезьян / Rise of the Planet of the Apes (Руперт Уайатт, ...
  • Двойник дьявола / The Devils Double (Ли Тамахори, драма, биография, 2011) [ ...
  • Погоня / Abduction (Джон Синглтон, боевик, триллер, драма, детектив,2011) [ ...
  • Профессионал / Killer Elite (Гэри МакКендри, Боевик, Триллер, Криминал, 201 ...
  • Время ведьм / Season of the Witch (Доминик Сена, Фэнтези, 2010) [BDRip 720 ...
  • Время / In Time (Эндрю Никкол, фантастика, триллер, драма, мелодрама, крими ...
  • Дом грёз / Dream House (Джим Шеридан, триллер, драма, детектив, 2011) [BDRi ...
  • Домашняя работа / The Art of Getting By (Гэвин Вьесен, драма, мелодрама, 20 ...
  • Пираньи 3DD / Piranha 3DD (Джон Гулажер, ужасы, триллер, комедия, 2012) [BD ...
  • Хижина в лесу / The Cabin in the Woods (Дрю Годдард, Ужасы, фантастика, три ...
  • Супер Майк / Magic Mike (Стивен Содерберг, Драма, комедия, 2012) [BDRip 108 ...
  • Люди как мы / People Like Us (Алекс Куртцман, Драма, 2012) [BDRip 1080p, Пр ...
  • Mylene Farmer / Du Temps [2011, Pop, HDTVRip]
  • Двойник дьявола / The Devils Double (Ли Тамахори, драма, биография, 2011г) ...
  • [iPhone, iPod, iPad]Двойник дьявола / The Devils Double (Ли Тамахори / Lee ...
  • Информация
    Посетители, находящиеся в группе Гости, не могут оставлять комментарии к данной публикации.