вход на сайт

Имя пользователя :
Пароль :

Восстановление пароля Регистрация
11-11-11 / 11-11-11 (Даррен Линн Боусман, ужасы, триллер, 2011) [BDRip 720p, Дублированный + Оригинал + субтитры]
Рейтинг:
(голосов: 1)



[img]{THEME}/images/logopost.png[/img]



11-11-11 / 11-11-11

Год выпуска: 2011
Страна: США, Испания
Производство: Canonigo Films
Жанр: Ужасы, триллер

Режиссёр: Даррен Линн Боусман
В ролях: Тимоти Гиббс, Майкл Лэндис, Дэнис Рафтер, Венди Гленн, Луис Солер, Брендан Прайс, Лоло Херреро, Монтсеррат Альковерро, Кельвин Гилмор, Саломе Хименес

Перевод: Дублированный [лицензия] + Оригинал
Субтитры: Русские, английские

Описание: В центре событий известный писатель по имени Джозеф Крон, потерявший в результате несчастного случая жену и ребенка. Чтобы оправиться от трагедии, он едет в Европу, в Испанию, где живет его брат Самюэль и находящийся при смерти отец Ричард. Но судьба продолжает преследовать Джозефа, и все события оказываются мистическим образом связаны с числом 11. Джозеф становится одержим этим числом. Проведя расследование, он выясняет, что 11.11.11 произойдет некое событие, информация о котором зашифрована в молитвенных книгах разных религий мира. Вскоре он понимает, что 11.11.11 — это ПРЕДУПРЕЖДЕНИЕ.



Качество: BDRip 720p [HDChina]
Продолжительность: 01:32:56

Формат: MKV
Видео кодек: AVC
Аудио кодек: AC3|DTS
Видео: 1280x534 (2.40:1), 25.000 fps, ~3541 kbps avg, 0.207 bit/pixel
Аудио#1: 48 kHz, AC3, 3/2 (L,C,R,l,r) + LFE ch, ~448.00 kbps avg - Профессиональный (полное дублирование) - язык русский
Аудио#2: 48 kHz, DTS, 3/2 (L,C,R,l,r) + LFE ch, ~1510.00 kbps avg - Оригинал - язык английский
MediaInfo ▼Text
General
Unique ID : 187182836248846652398144517365180421283 (0x8CD21A5A52560C03B1F65C18326C54A3)
Complete name : 11-11-11.2011.D.BDRip.720p.mkv
Format : Matroska
Format version : Version 2
File size : 3.57 GiB
Duration : 1h 32mn
Overall bit rate : 5 493 Kbps
Movie name : UNIONGANG.TV -TVB-
Encoded date : UTC 2011-12-10 16:01:39
Writing application : mkvmerge v5.0.1 (Es ist Sommer) built on Oct 9 2011 11:55:43
Writing library : libebml v1.2.2 + libmatroska v1.3.0

Video
ID : 1
Format : AVC
Format/Info : Advanced Video Codec
Format profile : [email protected]
Format settings, CABAC : Yes
Format settings, ReFrames : 12 frames
Codec ID : V_MPEG4/ISO/AVC
Duration : 1h 32mn
Bit rate : 3 541 Kbps
Width : 1 280 pixels
Height : 534 pixels
Display aspect ratio : 2.40:1
Frame rate : 25.000 fps
Color space : YUV
Chroma subsampling : 4:2:0
Bit depth : 8 bits
Scan type : Progressive
Bits/(Pixel*Frame) : 0.207
Stream size : 2.22 GiB (62%)
Title : HDChina
Writing library : x264 core 116 r2074 2641b9e
Encoding settings : cabac=1 / ref=12 / deblock=1:-3:-3 / analyse=0x3:0x133 / me=umh / subme=10 / psy=1 / psy_rd=1.00:0.00 / mixed_ref=1 / me_range=32 / chroma_me=1 / trellis=2 / 8x8dct=1 / cqm=0 / deadzone=21,11 / fast_pskip=1 / chroma_qp_offset=-2 / threads=12 / sliced_threads=0 / nr=0 / decimate=0 / interlaced=0 / bluray_compat=0 / constrained_intra=0 / bframes=6 / b_pyramid=2 / b_adapt=2 / b_bias=0 / direct=3 / weightb=1 / open_gop=0 / weightp=2 / keyint=250 / keyint_min=25 / scenecut=40 / intra_refresh=0 / rc_lookahead=60 / rc=2pass / mbtree=0 / bitrate=3541 / ratetol=1.0 / qcomp=0.60 / qpmin=0 / qpmax=69 / qpstep=4 / cplxblur=20.0 / qblur=0.5 / vbv_maxrate=50000 / vbv_bufsize=50000 / nal_hrd=none / ip_ratio=1.50 / pb_ratio=1.30 / aq=1:1.00
Language : English

Audio #1
ID : 2
Format : AC-3
Format/Info : Audio Coding 3
Mode extension : CM (complete main)
Codec ID : A_AC3
Duration : 1h 32mn
Bit rate mode : Constant
Bit rate : 448 Kbps
Channel(s) : 6 channels
Channel positions : Front: L C R, Side: L R, LFE
Sampling rate : 48.0 KHz
Bit depth : 16 bits
Compression mode : Lossy
Stream size : 298 MiB (8%)
Title : Dub
Language : Russian

Audio #2
ID : 3
Format : DTS
Format/Info : Digital Theater Systems
Codec ID : A_DTS
Duration : 1h 32mn
Bit rate mode : Constant
Bit rate : 1 510 Kbps
Channel(s) : 6 channels
Channel positions : Front: L C R, Side: L R, LFE
Sampling rate : 48.0 KHz
Bit depth : 16 bits
Compression mode : Lossy
Stream size : 1 004 MiB (27%)
Language : English

Text #1
ID : 4
Format : UTF-
1345e31d417b004d0a076728e8c1b4f76bed74bf11-11-11 / 11-11-11 (Даррен Линн Боусман, ужасы, триллер, 2011) [BDRip 720p, Дублированный + Оригинал + субтитры] 11-11-11 / 11-11-11 (Даррен Линн Боусман, ужасы, триллер, 2011) [BDRip 720p, Дублированный + Оригинал + субтитры] " />

Аплоадер: Админ, дата: 11-12-2011, 06:13, торрент скачан: 359 раз

Понравилась раздача? Посмотрите эти:
  • Пастырь / Priest (Скотт Чарльз Стюарт, ужасы, фантастика, боевик, триллер, ...
  • Гость / The Caller (Мэттью Паркхилл, триллер, детектив, 2011) [BDRip 720p, ...
  • Шелуха / Husk (Бретт Симмонс, ужасы, триллер, 2011) [BDRip 720p, Профессион ...
  • Военные Игры / War Games: At The End Of The Day ( Козимо Алема, триллер, у ...
  • 11 11 11 / 11 11 11 (Даррен Линн Боусман , ужасы, триллер, 2011) [DVDRip-AV ...
  • 11-11-11 / 11-11-11 (Даррен Линн Боусман / Darren Lynn Bousman, ужасы, тр ...
  • Затаившиеся / Hidden (Антуан Томас, ужасы, триллер, 2011) [HDRip-AVC, Дубли ...
  • Красная шапочка / Red Riding Hood (Кэтрин Хардвик, ужасы, фэнтези, триллер, ...
  • Исходный код / Source Code (Дункан Джонс, фантастика, боевик, триллер, 2011 ...
  • Секс по дружбе / Friends with Benefits (Уилл Глак, драма, мелодрама, комеди ...
  • Успеть за 30 минут / 30 Minutes or Less (Рубен Фляйшер, боевик,комедия,крим ...
  • Конан-варвар / Conan the Barbarian (Маркус Ниспел, фэнтези, боевик, приключ ...
  • Паранормальное явление 3 / Paranormal Activity 3 [Theatrical Cut] (Генри Дж ...
  • Экстрасенс / The Awakening (Ник Мерфи, ужасы, триллер, 2011) [BDRip 720p, Д ...
  • Между / Twixt (Френсис Форд Коппола, ужасы, фэнтези, триллер, 2011) [BDRip ...
  • Ворон / The Raven (Джеймс МакТиг, Триллер, детектив, 2012) [BDRip 720p, Дуб ...
  • Семь футов / Seven Below (Кевин Каррауэй, Ужасы, триллер, 2012) [BDRip 720p ...
  • Цунами 3D / Bait (Кимбл Рендалл, Ужасы, боевик, триллер, 2011) [BDRip 720p ...
  • Явление / The Apparition (Тодд Линкольн, Ужасы, триллер, 2012) [BDRip 720p, ...
  • Оборотень: Зверь среди нас / Werewolf: The Beast Among Us (Луи Морно, ужасы ...
  • Коллекционер 2 / The Collection (Маркус Данстэн, ужасы, боевик, триллер, 20 ...
  • Mylene Farmer / Du Temps [2011, Pop, HDTVRip]
  • Mylene Farmer / Bleu Noir [2011, Pop, HDTVRip]
  • 11 11 11 / 11-11-11 (Даррен Линн Боусман, ужасы, триллер, 2011) [HDRip, Про ...
  • 11 11 11 / 11-11-11 (Даррен Линн Боусман / Darren Lynn Bousman, Ужасы, трил ...
  • Информация
    Посетители, находящиеся в группе Гости, не могут оставлять комментарии к данной публикации.