вход на сайт

Имя пользователя :
Пароль :

Восстановление пароля Регистрация
Марко Макако / Marco Macaco (Жан Рабек, Мультфильм, комедия, семейный, 2012) [BDRip 720p, Дубляж]
Рейтинг:
(голосов: 1)



[img]{THEME}/images/logopost.png[/img]



Марко Макако / Marco Macaco
«Даёшь бананы!»


Год выпуска: 2012
Страна: Дания
Производство: Nice Ninja Productions
Жанр: Мультфильм, комедия, семейный

Режиссёр: Жан Рабек
В ролях: Токе Бьярке, Милле Лефельдт, Руне Толсгаард, Джесс Ингерслев

Перевод: Дубляж
Субтитры: Отсутствуют

Описание: Марко Макако работает пляжным охранником на тропическом острове. Он верой и правдой служит своему боссу, мечтая лишь об одном — раскрыть серьезное преступление. Марко проводит собственные расследования по любому поводу и поднимает шумиху по пустякам. Однако вскоре ему по-настоящему повезет: завоевывая расположение красавицы Лулу, Марко раскроет коварный заговор богача Карло, вознамерившегося стать боссом.

Релиз от:






Качество: BDRip 720p | Сэмпл
Продолжительность:01:15:47 час.

Формат: MKV
Видео кодек: x264
Аудио кодек: AC3
Видео: 1280x692 (1.85:1), 24,000 fps, x264 ~4 280kbps avg, 0.201 bit/pixel
Аудио: 48 kHz, AC3 Dolby Digital, 3/2 (L,C,R,l,r) + LFE ch, ~640 kbps


Дата премьеры (мир): 11 октября 2012
Дата премьеры (РФ): 27 декабря 2012, «Люксор»

MediaInfo| x264 ▼
x264 info ▼x264 [info]: frame I:1204 Avg QP:16.74 size: 86060
x264 [info]: frame P:24175 Avg QP:18.08 size: 36230
x264 [info]: frame B:83757 Avg QP:19.66 size: 18016
x264 [info]: consecutive B-frames: 3.4% 2.6% 7.0% 23.0% 15.6% 29.6% 8.3% 4.6% 3.3% 2.5%

General
Unique ID : 235265946252370257303577908232098976069 (0xB0FE92B540CF50ABA940AED2D7049145)
Complete name : Marco.Macaco.2012.720p.BluRay.DD.5.1.x264-IRONCLUB.mkv
Format : Matroska
Format version : Version 2
File size : 2.66 GiB
Duration : 1h 15mn
Overall bit rate : 5 020 Kbps
Movie name : IRONCLUB
Encoded date : UTC 2013-02-15 19:27:54
Writing application : mkvmerge v5.2.0 (I cant explain) built on Dec 18 2011 18:12:03
Writing library : libebml v1.2.3 + libmatroska v1.3.0

Video
ID : 1
Format : AVC
Format/Info : Advanced Video Codec
Format profile : [email protected]
Format settings, CABAC : Yes
Format settings, ReFrames : 9 frames
Codec ID : V_MPEG4/ISO/AVC
Duration : 1h 15mn
Bit rate : 4 280 Kbps
Width : 1 280 pixels
Height : 692 pixels
Display aspect ratio : 1.85:1
Frame rate : 24.000 fps
Color space : YUV
Chroma subsampling : 4:2:0
Bit depth : 8 bits
Scan type : Progressive
Bits/(Pixel*Frame) : 0.201
Stream size : 2.27 GiB (85%)
Title : Marco Macaco 2012 720p BluRay DD 5.1 x264-IRONCLUB
Writing library : x264 core 129 r2245kMod bc13772
Encoding settings : cabac=1 / ref=9 / deblock=1:-1:-1 / analyse=0x3:0x113 / me=umh / subme=11 / psy=1 / fade_compensate=0.00 / psy_rd=0.75:0.00 / mixed_ref=1 / me_range=24 / chroma_me=1 / trellis=2 / 8x8dct=1 / cqm=0 / deadzone=21,11 / fast_pskip=0 / chroma_qp_offset=-2 / threads=12 / lookahead_threads=2 / sliced_threads=0 / nr=0 / decimate=1 / interlaced=0 / bluray_compat=0 / constrained_intra=0 / bframes=9 / b_pyramid=2 / b_adapt=2 / b_bias=0 / direct=3 / weightb=1 / open_gop=0 / weightp=2 / keyint=250 / keyint_min=24 / scenecut=40 / intra_refresh=0 / rc_lookahead=60 / rc=crf / mbtree=0 / crf=18.0000 / qcomp=0.65 / qpmin=0 / qpmax=69 / qpstep=4 / vbv_maxrate=50000 / vbv_bufsize=62500 / crf_max=0.0 / nal_hrd=none / ip_ratio=1.30 / pb_ratio=1.20 / aq=2:0.70
Language : Danish
Default : Yes
Forced : Yes

Audio
ID : 2
Format : AC-3
Format/Info : Audio Coding 3
Mode extension : CM (complete main)
Format settings, Endianness : Big
Codec ID : A_AC3
Duration : 1h 15mn
Bit rate mode : Constant
Bit rate : 640 Kbps
Channel(s) : 6 channels
Channel positions : Front: L C R, Side: L R, LFE
Sampling rate : 48.0 KHz
Bit depth : 16 bits
Compression mode : Lossy
Stream size : 347 MiB (13%)
Title : DD 5.1 @ 640 kbps
Language : Russian
Default : Yes
Forced : Yes

Menu
00:00:00.000 : en:00:00:00.000
00:06:46.625 : en:00:06:46.625
00:13:30.083 : en:00:13:30.083
00:22:41.416 : en:00:22:41.416
00:27:38.500 : en:00:27:38.500
00:33:43.333 : en:00:33:43.333
00:40:40
40bc6d0352edcf400760251b183e063862919442Марко Макако / Marco Macaco (Жан Рабек, Мультфильм, комедия, семейный, 2012) [BDRip 720p, Дубляж] Марко Макако / Marco Macaco (Жан Рабек, Мультфильм, комедия, семейный, 2012) [BDRip 720p, Дубляж] " />

Аплоадер: Админ, дата: 16-02-2013, 11:14, торрент скачан: 359 раз

Понравилась раздача? Посмотрите эти:
  • UFC The Ultimate 100 Knockouts - PPV [MMA,2013, HDTVRip 720p]
  • Марко Макако / Marco Macaco (Жан Рабек, мультфильм, комедия, семейный, 2012 ...
  • Марко Макако / Marco Macaco (Жан Рабек, Мультфильм, комедия, семейный, 2012 ...
  • Марко Макако / Marco Macaco (Жан Рабек, Мультфильм, комедия, семейный, 2012 ...
  • Снежная королева (Максим Свешников, Владлен Барбэ, Мультфильм, фэнтези, при ...
  • Замуж на 2 дня / Un plan parfait (Паскаль Шомель, Мелодрама, комедия, прикл ...
  • Анна Каренина / Anna Karenina (Джо Райт, Драма, мелодрама, 2012) [BDRip 720 ...
  • Толстяк на ринге / Here Comes the Boom (Фрэнк Корачи, Боевик, комедия, 201 ...
  • Толстяк на ринге / Here Comes the Boom (Фрэнк Корачи, Боевик, комедия, 201 ...
  • Джекпот / Arme Riddere (Магнус Мартенс, Боевик, комедия, криминал, 2011) [B ...
  • Билет на Vegas (Гор Киракосян, Комедия, приключения, 2012) [BDRip 720p, Не ...
  • Марко Макако / Marco Macaco (Жан Рабек, Мультфильм, комедия, семейный, 2012 ...
  • Покорители Волн / Chasing Mavericks (Майкл Эптед, Кёртис Хэнсон, Драма, спо ...
  • Белый тигр (Карен Шахназаров, военный, 2012) [BDRip 720p, Не требуется]
  • Проект X: Дорвались / Project X (Нима Нуризаде, комедия, 2012) [BDRip 720p, ...
  • Джок / Jock (Дункан МакНили, мультфильм, комедия, приключения, семейный, 20 ...
  • Золушка: Полный вперед! / Cendrillon au Far West (Паскаль Эрольд, Мультфиль ...
  • Неудержимые 2 / The Expendables 2 (Саймон Уэст, боевик, триллер, 2012) [BDR ...
  • Любовь С Препятствиями / Un Bonheur Narrive Jamais Seul (Джеймс Хат, Мелодр ...
  • Патруль / End of Watch (Дэвид Эйр, Триллер, драма, криминал, 2012) [BDRip 7 ...
  • Я, Алекс Кросс / Alex Cross (Роб Коэн, Боевик, триллер, криминал, детектив, ...
  • 1812: Уланская баллада (Олег Фесенко, Приключения, 2012) [BDRip 720p, Не тр ...
  • С новым годом, мамы! (Сарик Андреасян, Артем Аксененко, Дмитрий Грачев, Ком ...
  • Марко Макако / Marco Macaco (Жан Рабек, мультфильм, комедия, семейный, 2012 ...
  • Марко Макако / Marco Macaco (Жан Рабек, Мультфильм, комедия, семейный, 2012 ...
  • Информация
    Посетители, находящиеся в группе Гости, не могут оставлять комментарии к данной публикации.