вход на сайт

Имя пользователя :
Пароль :

Восстановление пароля Регистрация
Толстяк на ринге / Here Comes the Boom (Фрэнк Корачи, Боевик, комедия, 2012) [BDRip 720p, Дубляж, Оригинал (английский), Sub]
Рейтинг:
(голосов: 1)



[img]{THEME}/images/logopost.png[/img]



Толстяк на ринге / Here Comes the Boom
«Юмор в тяжёлом весе»


Год выпуска: 2012
Страна: США
Производство: Broken Road Productions, Happy Madison Productions, Hey Eddie
Жанр: Боевик, комедия

Режиссёр: Фрэнк Корачи
В ролях:Кевин Джеймс, Сальма Хайек, Генри Уинклер, Грег Джерманн, Джо Роган, Гари Валентайн, Чарис Пемпенгко, Бас Раттен, Регги Ли, Марк ДеллаГротт

Перевод: Дубляж, Оригинал (английский)
Субтитры: Russian, Ukrainian, English [Full, SDH]

Описание: Учитель биологии в средней школе подрабатывает бойцом в смешанных боевых искусствах, пытаясь собрать деньги, чтобы сохранить школьную музыкальную программу.

Релиз от:Качество: BDRip 720p | Сэмпл
Продолжительность: 01:44:55 час.

Формат: MKV
Видео кодек: x264
Аудио кодек: AC3, DTS
Видео: 1280x694 (1,85:1), 23,976 fps, x264 ~6 384 kbps avg, 0.300 bit/pixel
Аудио#1: 48 kHz, AC3 Dolby Digital, 3/2 (L,C,R,l,r) + LFE ch, ~640 kbps - (Дубляж )
Аудио#2: 48 kHz/16-bit, DTS, 3/2 (L,C,R,l,r) + LFE ch, ~1510.00 kbps avg - (Оригинал)

Дата премьеры (мир): 10 октября 2012
Дата премьеры (РФ): 6 декабря 2012, «WDSSPR»

MediaInfo ▼General
Unique ID : 255066058128634058821102970333639779324 (0xBFE3EF981AA9AF3FA9DB93808CF4A3FC)
Complete name : Here.Comes.the.Boom.2012.BDRip.720p.rus.eng.ac3.dts.IRONCLUB.mkv
Format : Matroska
Format version : Version 2
File size : 6.38 GiB
Duration : 1h 44mn
Overall bit rate : 8 707 Kbps
Movie name : IRONCLUB
Encoded date : UTC 2013-02-07 06:18:22
Writing application : mkvmerge v5.2.0 (I cant explain) built on Dec 18 2011 18:12:03
Writing library : libebml v1.2.3 + libmatroska v1.3.0

Video
ID : 1
Format : AVC
Format/Info : Advanced Video Codec
Format profile : [email protected]
Format settings, CABAC : Yes
Format settings, ReFrames : 9 frames
Codec ID : V_MPEG4/ISO/AVC
Duration : 1h 44mn
Bit rate : 6 384 Kbps
Width : 1 280 pixels
Height : 694 pixels
Display aspect ratio : 1.85:1
Frame rate : 23.976 fps
Color space : YUV
Chroma subsampling : 4:2:0
Bit depth : 8 bits
Scan type : Progressive
Bits/(Pixel*Frame) : 0.300
Stream size : 4.68 GiB (73%)
Title : Here.Comes.the.Boom.2012.720p.BluRay.DTS.x264-NiP
Writing library : x264 core 129 r2245kMod bc13772
Encoding settings : cabac=1 / ref=9 / deblock=1:-2:-2 / analyse=0x3:0x113 / me=tesa / subme=11 / psy=1 / fade_compensate=0.00 / psy_rd=0.95:0.00 / mixed_ref=1 / me_range=24 / chroma_me=1 / trellis=2 / 8x8dct=1 / cqm=0 / deadzone=21,11 / fast_pskip=0 / chroma_qp_offset=-2 / threads=12 / lookahead_threads=2 / sliced_threads=0 / nr=0 / decimate=1 / interlaced=0 / bluray_compat=0 / constrained_intra=0 / bframes=7 / b_pyramid=2 / b_adapt=2 / b_bias=0 / direct=1 / weightb=1 / open_gop=0 / weightp=2 / keyint=250 / keyint_min=23 / scenecut=40 / intra_refresh=0 / rc=crf / mbtree=0 / crf=17.5000 / qcomp=0.60 / qpmin=0 / qpmax=69 / qpstep=4 / ip_ratio=1.25 / pb_ratio=1.15 / aq=1:0.70
Language : English
Default : Yes
Forced : Yes
Matrix coefficients : BT.709-5, BT.1361, IEC 61966-2-4 709, SMPTE RP177

Audio #1
ID : 2
Format : AC-3
Format/Info : Audio Coding 3
Mode extension : CM (complete main)
Format settings, Endianness : Big
Codec ID : A_AC3
Duration : 1h 44mn
Bit rate mode : Constant
Bit rate : 640 Kbps
Channel(s) : 6 channels
Channel positions : Front: L C R, Side: L R, LFE
Sampling rate : 48.0 KHz
Bit depth : 16 bits
Compression mode : Lossy
Stream size : 480 MiB (7%)
Title : DD 5.1 @ 640 kbps - Dub, CEE
Language : Russian
Default : Yes
Forced : Yes

Audio #2
ID : 3
Format : DTS
Format/Info : Digital Theater Systems
Codec ID : A_DTS
Duration : 1h 44mn
Bit rate mode : Constant
Bit rate : 1 510 Kbps
Channel(s) : 6 channels
Channel positions : Front: L C R, Side: L R, LFE
Sampling rate : 48.0 KHz
Bit depth : 24 bits
Compression mode : Lossy
Stream size : 1.11 GiB (17%)
Title : DTS 5.1 @ 1536 kbps
Language : E
20ed80c328be656b0f6292900426bc82a5ed0ea5 Толстяк на ринге / Here Comes the Boom (Фрэнк Корачи, Боевик, комедия, 2012) [BDRip 720p, Дубляж, Оригинал (английский), Sub] Толстяк на ринге / Here Comes the Boom (Фрэнк Корачи, Боевик, комедия, 2012) [BDRip 720p, Дубляж, Оригинал (английский), Sub] " />

Аплоадер: Админ, дата: 7-02-2013, 14:17, торрент скачан: 359 раз

Понравилась раздача? Посмотрите эти:
  • Железный Кулак [Театральная версия] / The Man with the Iron Fists [Theatric ...
  • Толстяк на ринге / Here Comes the Boom (Фрэнк Корачи, боевик, комедия, спор ...
  • Жизнь Пи / Life Of Pi (Энг Ли, Драма, приключения, 2012) [BDRip 720p, Профе ...
  • Толстяк на ринге / Here Comes the Boom (Фрэнк Корачи, боевик, комедия, 2012 ...
  • Толстяк на ринге / Here Comes the Boom (Фрэнк Корачи, боевик, комедия, 2012 ...
  • [iPhone, iPod]Толстяк на ринге / Here Comes the Boom (Фрэнк Корачи, Боевик, ...
  • Толстяк на ринге / Here Comes the Boom (Фрэнк Корачи, Боевик, комедия, 201 ...
  • Толстяк на ринге / Here Comes the Boom (Фрэнк Корачи, Боевик, комедия, 201 ...
  • Толстяк на ринге / Here Comes the Boom (Фрэнк Корачи, Боевик, комедия, 2012 ...
  • Толстяк на ринге / Here Comes the Boom (Фрэнк Корачи, боевик, комедия, 2012 ...
  • Толстяк на ринге / Here Comes the Boom (Фрэнк Корачи, Боевик, комедия, 2012 ...
  • Толстяк на ринге / Here Comes the Boom (Фрэнк Корачи, боевик, комедия, спор ...
  • Толстяк на ринге / Here Comes the Boom (Фрэнк Корачи, Боевик, комедия, 201 ...
  • Весенние надежды / Hope Springs (Дэвид Фрэнкел, Драма, мелодрама, комедия, ...
  • Толстяк на ринге / Here Comes the Boom (Фрэнк Корачи, Боевик, комедия, 201 ...
  • Толстяк на ринге / Here Comes the Boom (Фрэнк Корачи, Боевик, комедия, 201 ...
  • Толстяк на ринге / Here Comes the Boom (Фрэнк Корачи, Боевик, комедия, спор ...
  • Хорошо быть тихоней / The Perks of Being a Wallflower (Стивен Чбоски, Драма ...
  • «Весёлые» каникулы / Get the Gringo (Адриан Грюнберг, Боевик, комедия, 2012 ...
  • Ворон / The Raven (Джеймс МакТиг, Триллер, детектив, 2012) [BDRip 720p, Дуб ...
  • Люди в черном 3 / Men in Black III (Барри Зонненфельд, Фантастика, боевик, ...
  • Медальон / Stolen (Саймон Уэст, Боевик, триллер, 2012) [BDRip 720p, Дубляж, ...
  • Супер Майк / Magic Mike (Стивен Содерберг, Драма, комедия, 2012) [BDRip 720 ...
  • Третий лишний / Ted (Сет МакФарлейн, Фэнтези, комедия, 2012) [BDRip 720p, Д ...
  • [Трейлер] Толстяк на ринге / Here Comes the Boom (Фрэнк Корачи, боевик, ком ...
  • Информация
    Посетители, находящиеся в группе Гости, не могут оставлять комментарии к данной публикации.