вход на сайт

Имя пользователя :
Пароль :

Восстановление пароля Регистрация
Смертельная гонка 3 / Death Race: Inferno [UNRATED] (Роэль Рейн, боевик, триллер, криминал, 2013) [BDRip 1080p, Дублированный + Оригинал + SUB]
Рейтинг:
(голосов: 1)



[img]{THEME}/images/logopost.png[/img]



Смертельная гонка 3 / Death Race: Inferno
[Расширенная версия / Unrated Cut]
-
Год выпуска: 2013
Страна: США
Производство: Moonlighting Films South Africa
Жанр: боевик, триллер, криминал

Режиссёр: Роэль Рейн | Roel Reiné
В ролях:Дэнни Трехо, Винг Реймз, Люк Госс, Дюгрэй Скотт, Танита Феникс, Робин Шоу, Фредерик Колер, Таня ван Граан, Шон Майкл, Лэнгли Кирквуд

Перевод: Профессиональный (полнное дублирование) + Оригинал (Английский)
Субтитры: softsub (SRT) |Russian [Forced, Full], English
Описание:
Осужденный полицейский-убийца Карл Лукас, он же Франкенштейн, суперзвезда жестоких тюремных гонок на выживание, известных как Смертельная Гонка. Только одна победа отделяет его от получения свободы для себя и своей команды. Однако теперь Лукас оказался в совершенно новом, ещё более порочном соревновании. Сражаясь против властных закулисных сил и безжалостных противников, Лукас борется, чтобы спасти себя и свою команду в адской гонке в пустыне Калахари и получить свободу.



Дата премьеры (мир): 22 января 2013
Релиз на DVD: 14 февраля 2013, «Двадцатый Век Фокс СНГ»
Релиз на Blu-Ray: 14 февраля 2013, «Двадцатый Век Фокс СНГ»
Качество: BDRip 1080p | исх. Смертельная гонка 3 / Death Race: Inferno (2013) BD-Remux
Продолжительность: 01:45:12

Формат: MKV
Видео кодек: H.264
Аудио кодек: DTS
Видео: 1920x1080 (16:9), 23,976 fps, H.264 ~12 100 kbps avg, 0.243 bit/pixel
Аудио #1: 48 kHz, DTS, 3/2 (L,C,R,l,r) + LFE ch, ~768.00 kbps avg | Профессиональный (полнное дублирование)
Аудио #2: 48 kHz, DTS, 3/2 (L,C,R,l,r) + LFE ch, ~1510.00 kbps avg | Оригинал (Английский)
MediaInfo ▼General
Unique ID : 237231549830015201833961466047149794983 (0xB279227255901541843F25CBF2FA66A7)
Complete name : Death.Race.Inferno.2013.D.BDRip.1080p.IRONCLUB.mkv
Format : Matroska
Format version : Version 2
File size : 10.6 GiB
Duration : 1h 45mn
Overall bit rate : 14.4 Mbps
Movie name : IRONCLUB
Encoded date : UTC 2013-02-04 09:41:55
Writing application : mkvmerge v4.9.1 (Ich will) сборка от Jul 11 2011 23:53:15
Writing library : libebml v1.2.1 + libmatroska v1.1.1

Video
ID : 1
Format : AVC
Format/Info : Advanced Video Codec
Format profile : [email protected]
Format settings, CABAC : Yes
Format settings, ReFrames : 4 frames
Codec ID : V_MPEG4/ISO/AVC
Duration : 1h 45mn
Bit rate : 12.1 Mbps
Width : 1 920 pixels
Height : 1 080 pixels
Display aspect ratio : 16:9
Frame rate : 23.976 fps
Color space : YUV
Chroma subsampling : 4:2:0
Bit depth : 8 bits
Scan type : Progressive
Bits/(Pixel*Frame) : 0.243
Stream size : 8.68 GiB (82%)
Title : Death.Race.Inferno.2012.BluRay.1080p.DTS.x264-CHD
Writing library : x264 core 120 r2120 0c7dab9
Encoding settings : cabac=1 / ref=4 / deblock=1:-3:-3 / analyse=0x3:0x113 / me=umh / subme=10 / psy=1 / psy_rd=1.05:0.10 / mixed_ref=1 / me_range=48 / chroma_me=1 / trellis=2 / 8x8dct=1 / cqm=0 / deadzone=21,11 / fast_pskip=0 / chroma_qp_offset=-2 / threads=12 / sliced_threads=0 / nr=0 / decimate=1 / interlaced=0 / bluray_compat=0 / constrained_intra=0 / bframes=6 / b_pyramid=2 / b_adapt=2 / b_bias=0 / direct=3 / weightb=1 / open_gop=0 / weightp=2 / keyint=250 / keyint_min=23 / scenecut=40 / intra_refresh=0 / rc_lookahead=40 / rc=2pass / mbtree=0 / bitrate=12097 / ratetol=2.0 / qcomp=0.70 / qpmin=0 / qpmax=69 / qpstep=4 / cplxblur=20.0 / qblur=0.5 / vbv_maxrate=40000 / vbv_bufsize=30000 / nal_hrd=none / ip_ratio=1.40 / pb_ratio=1.30 / aq=2:1.00
Language : English
Default : Yes
Forced : Yes

Audio #1
ID : 2
Format : DTS
Format/Info : Digital Theater Systems
Codec ID : A_DTS
Duration : 1h 45mn
Bit rate mode : Constant
Bit rate : 755 Kbps
Channel(s) : 6 channels
Channel positions : Front: L C R, Side: L R, LFE
Sampling rate : 48.0 KHz
Bit depth : 24 bits
Compression mode : Lossy
Stream size : 568 MiB (5%)
Title : DTS 5.1 @ 768 kbps - Dub, BD EUR
Language : Russian
Default : Yes
Forced : Yes

Audio #2
ID : 3
For
7104f17ae9b2244a8d8890ab2ee4e8c399ff30c1Смертельная гонка 3 / Death Race: Inferno [UNRATED] (Роэль Рейн, боевик, триллер, криминал, 2013) [BDRip 1080p, Дублированный + Оригинал + SUB] Смертельная гонка 3 / Death Race: Inferno [UNRATED] (Роэль Рейн, боевик, триллер, криминал, 2013) [BDRip 1080p, Дублированный + Оригинал + SUB] " />

Аплоадер: Админ, дата: 4-02-2013, 19:13, торрент скачан: 359 раз

Понравилась раздача? Посмотрите эти:
  • Хроника / Chronicle (Джошуа Транк, фантастика, боевик, триллер, драма, 2012 ...
  • [iPhone, iPod] Смертельная Гонка 2: Франкенштейн Жив / Death Race 2: Franke ...
  • [iPhone, iPod] Смертельная гонка 3: Ад / Death Race 3: Inferno (Роэль Рейн, ...
  • Смертельная гонка 3 / Death Race: Inferno (Роэль Рейн, боевик, триллер, кри ...
  • Смертельная гонка 3 / Death Race: Inferno [UNRATED] (Роэль Рейн, боевик, тр ...
  • Смертельная гонка 3 / Death Race: Inferno [UNRATED] (Роэль Рейн, Боевик, тр ...
  • Смертельная гонка 3 / Death Race: Inferno [UNRATED] (Роэль Рейн, боевик, тр ...
  • Смертельная гонка: Трилогия / Death Race: Trilogy (Пол У. С. Андерсон, Роэл ...
  • Смертельная гонка 3 / Death Race: Inferno [UNRATED] (Роэль Рейн, боевик, тр ...
  • Смертельная гонка 3 / Death Race: Inferno [UNRATED] (Роэль Рейн, боевик, тр ...
  • Смертельная гонка 2: Франкенштейн жив / Death Race 2 (Роэль Рейн, Боевик, ф ...
  • Смертельная гонка / Death Race(Пол У. С. Андерсон, Боевик, 2008) [BDRip-AVC ...
  • Смертельная гонка: Франкенштейн жив / Death Race 2 [Unrated Edition] (Роэль ...
  • Смертельная гонка / Death Race (Пол У. С. Андерсон, фантастика, боевик, три ...
  • Смертельная гонка 2: Франкенштейн жив / Death Race 2 (Роэль Рейн, фантастик ...
  • Смертельная гонка / Death Race (Пол У.С. Андерсон /Paul W.S. Anderson, фант ...
  • Смертельная гонка / Death Race (Пол У.С. Андерсон /Paul W.S. Anderson, боев ...
  • Коллекционер 2 / The Collection (Маркус Данстэн, ужасы, боевик, триллер, 20 ...
  • Коллекционер 2 / The Collection (Маркус Данстэн, ужасы, боевик, триллер, 20 ...
  • (2008 - Сборник) Paul Halsinger - Смертельная Гонка Death Race OST [MP3 320 ...
  • Смертельная гонка / Death Race (Пол У. С. Андерсон / Paul W.S. Anderson, фа ...
  • Смертельная гонка 2: Франкенштейн жив / Death Race 2 (2010, Роэль Рейн, фан ...
  • Смертельная Гонка 2: Франкенштейн Жив / Death Race 2: Frankenstein Alive (Р ...
  • Смертельная Гонка 2: Франкенштейн Жив / Death Race 2: Frankenstein Alive (Р ...
  • Смертельная гонка / Death Race [UNRATED] (Пол У. С. Андерсон, Боевик, 2008) ...
  • Информация
    Посетители, находящиеся в группе Гости, не могут оставлять комментарии к данной публикации.