вход на сайт

Имя пользователя :
Пароль :

Восстановление пароля Регистрация
Джунгли (Александр Войтинский, Мелодрама, комедия, приключения, 2012) [BDRip 1080p, Не требуется]
Рейтинг:
(голосов: 1)



[img]{THEME}/images/logopost.png[/img]



Джунгли
«Любовь - это война!»


Год выпуска: 2012
Страна: Россия
Производство: Кинокомпания CTB
Жанр: Мелодрама, комедия, приключения

Режиссёр: Александр Войтинский
В ролях:Сергей Светлаков, Вера Брежнева, Александр Макогон, Александр Половцев, Марина Дюжева, Михаил Ефремов, Ирина Медведева, Андрей Гаврилов..

Перевод: Не требуется
Субтитры: Отсутствуют

Описание: У Сергея и Марины в семейной жизни наступил кризис. Во время одной из ссор, они решают поехать в экзотическое путешествие. Всю дорогу между супругами не утихают ссоры, которые в конце концов приводят к тому, что они оказываются на необитаемом острове, затерянном в океане. Вместо того чтобы вместе бороться за выживание, наши герои продолжают выяснять отношения, постепенно переходя к настоящим боевым действиям. В довершение несчастий оказывается, что остров населен племенем воинствующих туземцев…




Качество: BDRip 1080p |Сэмпл
Продолжительность:01:23:27 час.


Формат: MKV
Видео кодек: x264
Аудио кодек:DTS
Видео: 1920x814 (2.35:1), 23.976 fps, x264 ~15.7 mb/s , 0.418 bit/pixel
Аудио: 48 kHz/24-bit, DTS, 3/2 (L,C,R,l,r) + LFE ch, ~1510.00 kbps avg

Дата премьеры (мир): 29 ноября 2012
Дата премьеры (РФ): 29 ноября 2012, «Наше Кино»

MediaInfo ▼
F:FILMSRussianHDДжунглиDzhungli.2012.O.BDRip.1080p.mkv
General
Unique ID : 217098014559199354538441648785584294261 (0xA3538E8496F4A47CB6D05150E4A40975)
Complete name : F:FILMSRussianHDДжунглиDzhungli.2012.O.BDRip.1080p.mkv
Format : Matroska
Format version : Version 2
File size : 10.2 GiB
Duration : 1h 23mn
Overall bit rate : 17.5 Mbps
Movie name : IRONCLUB
Encoded date : UTC 2013-01-27 20:59:23
Writing application : mkvmerge v5.2.0 (I cant explain) built on Dec 18 2011 18:12:03
Writing library : libebml v1.2.3 + libmatroska v1.3.0
Video #1
ID : 1
Format : AVC
Format/Info : Advanced Video Codec
Format profile : [email protected]
Format settings, CABAC : Yes
Format settings, ReFrames : 5 frames
Codec ID : V_MPEG4/ISO/AVC
Duration : 1h 23mn
Bit rate : 15.7 Mbps
Width : 1 920 pixels
Height : 814 pixels
Display aspect ratio : 2.35:1
Frame rate : 23.976 fps
Color space : YUV
Chroma subsampling : 4:2:0
Bit depth : 8 bits
Scan type : Progressive
Bits/(Pixel*Frame) : 0.418
Stream size : 9.13 GiB (89%)
Title : Dzhungli 2012 1080p BluRay DTS x264 by shrayb
Writing library : x264 core 129 r2245kMod bc13772
Encoding settings : cabac=1 / ref=5 / deblock=1:-3:-3 / analyse=0x3:0x113 / me=umh / subme=11 / psy=1 / fade_compensate=0.00 / psy_rd=1.20:0.00 / mixed_ref=1 / me_range=48 / chroma_me=1 / trellis=2 / 8x8dct=1 / cqm=0 / deadzone=21,11 / fast_pskip=0 / chroma_qp_offset=-2 / threads=12 / lookahead_threads=2 / sliced_threads=0 / nr=0 / decimate=1 / interlaced=0 / bluray_compat=0 / constrained_intra=0 / bframes=9 / b_pyramid=2 / b_adapt=2 / b_bias=0 / direct=3 / weightb=1 / open_gop=0 / weightp=2 / keyint=250 / keyint_min=23 / scenecut=40 / intra_refresh=0 / rc_lookahead=192 / rc=crf / mbtree=0 / crf=17.5000 / qcomp=0.70 / qpmin=0 / qpmax=69 / qpstep=4 / vbv_maxrate=50000 / vbv_bufsize=62500 / crf_max=0.0 / nal_hrd=none / ip_ratio=1.30 / pb_ratio=1.20 / aq=1:0.80
Language : Russian
Default : Yes
Forced : Yes
Audio #2
ID : 2
Format : DTS
Format/Info : Digital Theater Systems
Codec ID : A_DTS
Duration : 1h 23mn
Bit rate mode : Constant
Bit rate : 1 510 Kbps
Channel(s) : 6 channels
Channel positions : Front: L C R, Side: L R, LFE
Sampling rate : 48.0 KHz
Bit depth : 16 bits
Compression mode : Lossy
Stream size : 901 MiB (9%)
Title : DTS 5.1 @ 1536 kbps
Language : Russian
Default : Yes
Forced : Yes
Menu
00:00:00.000 : ru:00:00:00.000
00:04:00.740 : ru:00:04:00.740
00:07:56.267 : ru:00:07:56.267
00:14:02.007 : ru:00:14:02.007
00:17:18.287 : ru:00:17:18.287
00:21:46.930 : ru:00:21:46.930
00:27:42.410 : ru:00:27:42.410
00:34:58.763 : ru:00:34:58.763
00
2947d4eceadc70e55440ff64ced6bf33e7d2ca1dДжунгли (Александр Войтинский, Мелодрама, комедия, приключения, 2012) [BDRip 1080p, Не требуется] Джунгли (Александр Войтинский, Мелодрама, комедия, приключения, 2012) [BDRip 1080p, Не требуется] " />

Аплоадер: Админ, дата: 1-02-2013, 15:24, торрент скачан: 359 раз

Понравилась раздача? Посмотрите эти:
  • Мастер / The Master (Пол Томас Андерсон, Драма, 2012) [BDRip 1080p, Дубляж, ...
  • Метро (Антон Мегердичев, Триллер, драма, 2012) [BDRip 1080p, Не требуется]
  • [3D] Джунгли (Александр Войтинский, Мелодрама, Комедия, Приключения, 2012) ...
  • Замуж на 2 дня / Un plan parfait (Паскаль Шомель, Мелодрама, комедия, прикл ...
  • Толстяк на ринге / Here Comes the Boom (Фрэнк Корачи, Боевик, комедия, 201 ...
  • Анна Каренина / Anna Karenina (Джо Райт, Драма, мелодрама, 2012) [BDRip 108 ...
  • Джунгли (Александр Войтинский, Мелодрама, комедия, приключения, 2012) [BDRi ...
  • Джунгли (Александр Войтинский, Мелодрама, комедия, приключения, 2012) [BDRi ...
  • Джунгли (Александр Войтинский, Мелодрама, комедия, приключения, 2012) [BDRi ...
  • Джунгли (Александр Войтинский, Мелодрама, комедия, приключения, 2012) [HDRi ...
  • Джунгли (Александр Войтинский, Мелодрама, комедия, приключения, 2012) [BDRi ...
  • Джунгли (Александр Войтинский, Мелодрама, комедия, приключения, 2012) [HDRi ...
  • [3D] От винта 3D (Ольга Лопато, Мультфильм, комедия, приключения, 2012) [BD ...
  • [3D] От винта 3D (Ольга Лопато, Мультфильм, комедия, приключения, 2012) [BD ...
  • [3D] Джунгли 3D трейлер (Александр Войтинский, Мелодрама, Комедия, Приключе ...
  • [3D] Джунгли (Александр Войтинский, мелодрама, комедия, приключения, 2012) ...
  • Смешарики. Начало (Денис Чернов, Мелодрама, 2011) [BDRip 1080p, Не требуетс ...
  • Джок / Jock (Дункан МакНили, мультфильм, комедия, приключения, семейный, 20 ...
  • 1812: Уланская баллада (Олег Фесенко, Приключения, 2012) [BDRip 720p, Не тр ...
  • Коллекционер 2 / The Collection (Маркус Данстэн, ужасы, боевик, триллер, 20 ...
  • Джунгли (Александр Войтинский, мелодрама, комедия, приключения, 2012) [BDRi ...
  • Джунгли (Александр Войтинский, Мелодрама, комедия, приключения, 2012) [DVDR ...
  • Джунгли (Александр Войтинский, Мелодрама, комедия, приключения, 2012) [DVD9 ...
  • Джунгли (Александр Войтинский, Мелодрама, комедия, приключения, 2012) [DVDR ...
  • [Трейлер] Джунгли (Александр Войтинский, комедия, приключения) [HDRip, Не т ...
  • Информация
    Посетители, находящиеся в группе Гости, не могут оставлять комментарии к данной публикации.