вход на сайт

Имя пользователя :
Пароль :

Восстановление пароля Регистрация
Снежная королева (Максим Свешников, Владлен Барбэ, Мультфильм, фэнтези, приключения, семейный, 2012) [BDRip 720p, Не требуется]
Рейтинг:
(голосов: 1)



[img]{THEME}/images/logopost.png[/img]



Снежная королева
«Главное новогоднее приключение»


Год выпуска: 2012
Страна: Россия
Производство: Инлэй Фильм, Wizart Animation
Жанр: Мультфильм, фэнтези, приключения, семейный

Режиссёр: Максим Свешников, Владлен Барбэ
В ролях: Иван Охлобыстин, Нюша Шурочкина, Анна Ардова, Рамиля Искандер, Дмитрий Нагиев, Лиза Арзамасова, Галина Тюнина, Юрий Стоянов, Людмила Артемьева, Михаил Тихонов

Перевод: Не требуется
Субтитры: Отсутствуют

Описание: В стремлении сотворить Новый мир — холодный и практичный, где четкость линий призвана заменить эмоции, а северный ветер должен остудить людские души, Снежная Королева избавляется от всех представителей творческих профессий. Маленькой и смелой Герде, отправившейся в опасное путешествие, чтобы спасти своего брата Кая, предстоит столкнуться с этим холодным миром Снежной Королевы. Преодолевая все сложности и преграды на пути к своей цели, Герда не только обретает семью, но и веру в себя, находит поддержку новых друзей.

Релиз от:





Качество: BDRip 720p |Сэмпл
Продолжительность: 01:16:00 час.

Формат: MKV
Видео кодек: x264
Аудио кодек:AC3
Видео: 1280x720 (16:9), 24.000 fps, x264 ~5 360 kbps avg, 0.242 bit/pixel
Аудио: 48 kHz, AC3 Dolby Digital, 3/2 (L,C,R,l,r) + LFE ch, ~640 kbps


Дата премьеры (мир): 1 января 2013
Дата премьеры (РФ): 31 декабря 2012, «Bazelevs Distribution»

MediaInfo ▼
General
Unique ID : 176039949741474493973095719763402029449 (0x84700FA1BADD13EA8220EEABF2C3F989)
Complete name : Snezhnaja.koroleva.2012.O.BDRip.720p.IRONCLUB.mkv
Format : Matroska
Format version : Version 2
File size : 3.31 GiB
Duration : 1h 17mn
Overall bit rate : 6 122 Kbps
Movie name : IRONCLUB
Encoded date : UTC 2013-02-01 05:34:44
Writing application : mkvmerge v5.2.0 (I cant explain) built on Dec 18 2011 18:12:03
Writing library : libebml v1.2.3 + libmatroska v1.3.0

Video
ID : 1
Format : AVC
Format/Info : Advanced Video Codec
Format profile : [email protected]
Format settings, CABAC : Yes
Format settings, ReFrames : 9 frames
Codec ID : V_MPEG4/ISO/AVC
Duration : 1h 17mn
Bit rate : 5 360 Kbps
Width : 1 280 pixels
Height : 720 pixels
Display aspect ratio : 16:9
Frame rate : 24.000 fps
Color space : YUV
Chroma subsampling : 4:2:0
Bit depth : 8 bits
Scan type : Progressive
Bits/(Pixel*Frame) : 0.242
Stream size : 2.90 GiB (88%)
Title : Snezhnaja koroleva 2012 720p BluRay DD 5.1 x264-IRONCLUB
Writing library : x264 core 129 r2245kMod bc13772
Encoding settings : cabac=1 / ref=9 / deblock=1:-1:-1 / analyse=0x3:0x113 / me=umh / subme=11 / psy=1 / fade_compensate=0.00 / psy_rd=0.80:0.00 / mixed_ref=1 / me_range=24 / chroma_me=1 / trellis=2 / 8x8dct=1 / cqm=0 / deadzone=21,11 / fast_pskip=0 / chroma_qp_offset=-2 / threads=12 / lookahead_threads=2 / sliced_threads=0 / nr=0 / decimate=1 / interlaced=0 / bluray_compat=0 / constrained_intra=0 / bframes=9 / b_pyramid=2 / b_adapt=2 / b_bias=0 / direct=3 / weightb=1 / open_gop=0 / weightp=2 / keyint=250 / keyint_min=24 / scenecut=40 / intra_refresh=0 / rc_lookahead=60 / rc=crf / mbtree=0 / crf=16.0000 / qcomp=0.70 / qpmin=0 / qpmax=69 / qpstep=4 / vbv_maxrate=50000 / vbv_bufsize=62500 / crf_max=0.0 / nal_hrd=none / ip_ratio=1.30 / pb_ratio=1.20 / aq=2:0.70
Language : Russian
Default : Yes
Forced : Yes

Audio
ID : 2
Format : AC-3
Format/Info : Audio Coding 3
Mode extension : CM (complete main)
Format settings, Endianness : Big
Codec ID : A_AC3
Duration : 1h 17mn
Bit rate mode : Constant
Bit rate : 640 Kbps
Channel(s) : 6 channels
Channel positions : Front: L C R, Side: L R, LFE
Sampling rate : 48.0 KHz
Bit depth : 16 bits
Compression mode : Lossy
Stream size : 354 MiB (10%)
Title : DD 5.1 @ 640 kbps
Language : Russian
Default : Yes
Forced : Yes

Menu
00:00:00.000 : ru:Chapter 01
00:09:25.291 : ru:Chapter 02
00:22:49.625 : ru:Chapter 03
00:31:46.166 : ru:Chapter 04
b289b5451b21b05a18db6e0c12a35b394f256fc8Снежная королева (Максим Свешников, Владлен Барбэ, Мультфильм, фэнтези, приключения, семейный, 2012) [BDRip 720p, Не требуется] Снежная королева (Максим Свешников, Владлен Барбэ, Мультфильм, фэнтези, приключения, семейный, 2012) [BDRip 720p, Не требуется] " />

Аплоадер: Админ, дата: 1-02-2013, 13:30, торрент скачан: 359 раз

Понравилась раздача? Посмотрите эти:
  • [3D] Снежная королева (Максим Свешников, Владлен Барбэ, Мультфильм, Фэнтези ...
  • [3D] Снежная королева (Максим Свешников, Владлен Барбэ, Мультфильм, Фэнтези ...
  • [3D] Снежная королева (Максим Свешников, Владлен Барбэ, Мультфильм, Фэнтези ...
  • Снежная королева (Максим Свешников, Владлен Барбэ, Мультфильм, фэнтези, при ...
  • Снежная королева (Максим Свешников, Владлен Барбэ, Мультфильм, фэнтези, при ...
  • Снежная королева (Максим Свешников, Владлен Барбэ, Мультфильм, фэнтези, при ...
  • Снежная королева (Максим Свешников, Владлен Барбэ, мультфильм, фэнтези, при ...
  • Храбрый плавник / Back to the Sea (Том Лу, Мультфильм, 2012) [ВDRip-AVC, Ду ...
  • Снежная королева (Максим Свешников, Владлен Барбэ, Мультфильм, фэнтези, при ...
  • Снежная королева (Максим Свешников, Владлен Барбэ, Мультфильм, фэнтези, при ...
  • Снежная королева (Максим Свешников, Владлен Барбэ, Мультфильм, фэнтези, при ...
  • Снежная королева (Максим Свешников, Владлен Барбэ, Мультфильм, фэнтези, при ...
  • Замуж на 2 дня / Un plan parfait (Паскаль Шомель, Мелодрама, комедия, прикл ...
  • Билет на Vegas (Гор Киракосян, Комедия, приключения, 2012) [BDRip 720p, Не ...
  • Марко Макако / Marco Macaco (Жан Рабек, Мультфильм, комедия, семейный, 2012 ...
  • Двигай время! / Los ilusionautas (Эдуардо Шульдт, Мультфильм, фэнтези, прик ...
  • [3D] Снежная Королева 3D трейлер (Максим Свешников, Владлен Барбэ, Мультфил ...
  • Бриллиантовая рука (Леонид Гайдай, комедия, криминал, приключения, 1968) [B ...
  • Схватка / The Grey (Джо Карнахан, Боевик, 2012) [BDRip 720p, Профессиональн ...
  • Джок / Jock (Дункан МакНили, мультфильм, комедия, приключения, семейный, 20 ...
  • Пираты! Банда неудачников / The Pirates! Band of Misfits (Питер Лорд, Джефф ...
  • Золушка: Полный вперед! / Cendrillon au Far West (Паскаль Эрольд, Мультфиль ...
  • Сказка. Есть (Елизавета Соломина, Константин Статский, Александр Баршак, Фэ ...
  • 1812: Уланская баллада (Олег Фесенко, Приключения, 2012) [BDRip 720p, Не тр ...
  • С новым годом, мамы! (Сарик Андреасян, Артем Аксененко, Дмитрий Грачев, Ком ...
  • Информация
    Посетители, находящиеся в группе Гости, не могут оставлять комментарии к данной публикации.