вход на сайт

Имя пользователя :
Пароль :

Восстановление пароля Регистрация
Жизнь Пи / Life Of Pi (Энг Ли, Драма, приключения, 2012) [BDRip 720p, Профессиональный (полное дублирование) + Украинский + Оригинал (английский) + Sub]
Рейтинг:
(голосов: 1)



[img]{THEME}/images/logopost.png[/img]



• Жизнь Пи / Life Of Pi •
«Поверь в невозможное»

Год выпуска: 2012
Страна: США, Тайвань
Производство: Fox 2000 Pictures, Haishang Films, Rhythm and Hues
Жанр: Драма, приключения

Режиссёр: Энг Ли
В ролях: Сурадж Шарма, Ирфан Кхан, Табу, Рейф Сполл, Жерар Депардье, Аюш Тандон, Гаутам Белур, Адиль Хуссэйн, Аян Кхан, Мохд Аббас Халили, Джеймс Саито

Перевод: Профессиональный (полное дублирование) + Украинский + Оригинал (английский)
Субтитры: Russian, Ukrainian, English [Forced, Full]

Описание: Главный герой фильма оказывается на шлюпке посреди океана в компании неожиданного попутчика — грозного бенгальского тигра.Дата премьеры (мир): 28 сентября 2012
Дата премьеры (РФ): 1 января 2013, «Двадцатый Век Фокс СНГ»


Релиз от:


Качество: BDRip 720p |Сэмпл
Продолжительность: 02:06:59


Формат: MKV
Видео кодек: H.264
Аудио кодек: AC3, DTS
Видео: H.264, 1280x692 (1,85:1), 23,976 fps, 7296 kbps, 0.344 bit/pixel
Аудио#1: 48 kHz/24-bit, DTS, 3/2 (L,C,R,l,r) + LFE ch, ~755.00 kbps avg | RUS
Аудио#2: 48 kHz, AC3 Dolby Digital, 3/2 (L,C,R,l,r) + LFE ch, ~448.00 kbps avg | Ukrainian
Аудио#3: 48 kHz/24-bit, DTS, 3/2 (L,C,R,l,r) + LFE ch, ~1510.00 kbps avg | ENG


MediaInfo ▼TextGeneral
Format : Matroska
Format version : Version 2
File size : 9.06 GiB
Duration : 2h 6mn
Overall bit rate : 10.2 Mbps
Movie name : IRONCLUB
Encoded date : UTC 2013-03-08 08:27:11
Writing application : mkvmerge v5.2.0 (I cant explain) built on Dec 18 2011 18:12:03
Writing library : libebml v1.2.3 + libmatroska v1.3.0

Video
ID : 1
Format : AVC
Format/Info : Advanced Video Codec
Format profile : [email protected]
Format settings, CABAC : Yes
Format settings, ReFrames : 9 frames
Codec ID : V_MPEG4/ISO/AVC
Duration : 2h 6mn
Bit rate : 7 296 Kbps
Width : 1 280 pixels
Height : 692 pixels
Display aspect ratio : 1.85:1
Frame rate : 23.976 fps
Color space : YUV
Chroma subsampling : 4:2:0
Bit depth : 8 bits
Scan type : Progressive
Bits/(Pixel*Frame) : 0.344
Stream size : 6.47 GiB (71%)
Title : Life of Pi 2012 720p BluRay x264 EbP
Writing library : x264 core 129 r2245 bc13772
Encoding settings : cabac=1 / ref=9 / deblock=1:-3:-3 / analyse=0x3:0x113 / me=tesa / subme=10 / psy=1 / psy_rd=0.90:0.00 / mixed_ref=1 / me_range=16 / chroma_me=1 / trellis=2 / 8x8dct=1 / cqm=0 / deadzone=21,11 / fast_pskip=0 / chroma_qp_offset=-2 / threads=12 / lookahead_threads=2 / sliced_threads=0 / nr=0 / decimate=0 / interlaced=0 / bluray_compat=0 / constrained_intra=0 / bframes=7 / b_pyramid=2 / b_adapt=2 / b_bias=0 / direct=3 / weightb=1 / open_gop=0 / weightp=2 / keyint=250 / keyint_min=23 / scenecut=40 / intra_refresh=0 / rc=crf / mbtree=0 / crf=15.5 / qcomp=0.50 / qpmin=0 / qpmax=69 / qpstep=4 / ip_ratio=1.40 / pb_ratio=1.30 / aq=1:0.90
Language : English
Default : Yes
Forced : Yes
Matrix coefficients : BT.709-5, BT.1361, IEC 61966-2-4 709, SMPTE RP177

Audio #1
ID : 2
Format : DTS
Format/Info : Digital Theater Systems
Codec ID : A_DTS
Duration : 2h 6mn
Bit rate mode : Constant
Bit rate : 755 Kbps
Channel(s) : 6 channels
Channel positions : Front: L C R, Side: L R, LFE
Sampling rate : 48.0 KHz
Bit depth : 24 bits
Compression mode : Lossy
Stream size : 685 MiB (7%)
Title : DTS 5.1 @ 768 kbps - Dub, Blu-ray
Language : Russian
Default : Yes
Forced : Yes

Audio #2
ID : 3
Format : AC-3
Format/Info : Audio Coding 3
Mode extension : CM (complete main)
Format settings, Endianness : Big
Codec ID : A_AC3
Duration : 2h 6mn
Bit rate mode : Constant
Bit rate : 448 Kbps
Channel(s) : 6 channels
Channel positions : Front: L C R, Side: L R, LFE
Sampling rate : 48.0 KHz
Bit depth : 16 bits
Compression mode : Lossy
Stream size : 407 MiB (4%)
Title : DD 5.1 @ 448 kbps - Dub, Blu-ray
Language : Ukrainian
Default : No
Forced : No

Audio #3
ID : 4
Format : DTS
Format/Info : Digital Theater Systems
Format profile : ES
Codec ID : A_DTS
Duration : 2h 6mn
Bit rate mode
f0b298f05831cf7416dc2fbef5f2cd15403ada3bЖизнь Пи / Life Of Pi (Энг Ли, Драма, приключения, 2012) [BDRip 720p, Профессиональный (полное дублирование) + Украинский + Оригинал (английский) + Sub] Жизнь Пи / Life Of Pi (Энг Ли, Драма, приключения, 2012) [BDRip 720p, Профессиональный (полное дублирование) + Украинский + Оригинал (английский) + Sub] " />

Аплоадер: Админ, дата: 9-03-2013, 16:48, торрент скачан: 359 раз

Понравилась раздача? Посмотрите эти:
  • Жизнь Пи / Life of Pi (Энг Ли, фэнтези, драма, приключения, 2012) [BDRip-AV ...
  • Жизнь Пи / Life of Pi (Энг Ли, фэнтези, драма, приключения, 2012) [DVD5, Пр ...
  • Цель Номер Один / Zero Dark Thirty (Кэтрин Бигелоу, Триллер, драма, история ...
  • Жизнь Пи / Life of Pi (Энг Ли, драма, приключения, 2012) [BDRip, Дублирован ...
  • [3D] Жизнь Пи / Life Of Pi (Энг Ли, Драма, приключения, 2012) [Blu-ray 3D D ...
  • Жизнь Пи / Life Of Pi (Энг Ли, Драма, приключения, 2012) [BDRip-AVC, Дубляж ...
  • Жизнь Пи / Life Of Pi (Энг Ли, Драма, приключения, 2012) [BDRip-AVC, Любите ...
  • Жизнь Пи / Life Of Pi (Энг Ли, Драма, приключения, 2012) [BDRip 1080p, Проф ...
  • Жизнь Пи / Life Of Pi (Энг Ли, Драма, приключения, 2012) [HDRip, Профессио ...
  • Жизнь Пи / Life Of Pi (Энг Ли, Драма, приключения, 2012) [BDRip, Дубляж]
  • Жизнь Пи / Life Of Pi (Энг Ли, Драма, приключения, 2012) [BDRip-AVC, Дубляж ...
  • [3D] Жизнь Пи / Life of Pi (Энг Ли, драма, приключения, 2012) [BDRip 1080p, ...
  • Жизнь Пи / Life Of Pi (Энг Ли, Драма, приключения, 2012) [HDRip, Дубляж, Su ...
  • Жизнь Пи / Life Of Pi (Энг Ли, Драма, приключения, 2012) [HDRip-AVC, Профес ...
  • Суррогат / The Sessions (Бен Луин, драма, 2012) [BDRip 720p, Профессиональн ...
  • Весенние надежды / Hope Springs (Дэвид Фрэнкел, Драма, мелодрама, комедия, ...
  • Толстяк на ринге / Here Comes the Boom (Фрэнк Корачи, Боевик, комедия, 201 ...
  • Хорошо быть тихоней / The Perks of Being a Wallflower (Стивен Чбоски, Драма ...
  • Черный дрозд / Deadfall (Штефан Руцовицки, Триллер, драма, криминал, 2012) ...
  • Значит, война / This Means War (МакДжи, боевик, мелодрама, комедия, 2012) [ ...
  • «Весёлые» каникулы / Get the Gringo (Адриан Грюнберг, Боевик, комедия, 2012 ...
  • Ворон / The Raven (Джеймс МакТиг, Триллер, детектив, 2012) [BDRip 720p, Дуб ...
  • Странная жизнь Тимоти Грина / The Odd Life of Timothy Green (Питер Хеджес, ...
  • Возлюбленные / Les bien-aimés (Кристоф Оноре, Драма, 2011) [BDRip 720p, Дуб ...
  • Слова / The Words [EXTENDED] (Ли Стернтал, Драма, мелодрама, 2012) [BDRip 7 ...
  • Информация
    Посетители, находящиеся в группе Гости, не могут оставлять комментарии к данной публикации.