вход на сайт

Имя пользователя :
Пароль :

Восстановление пароля Регистрация
Мастер / The Master (Пол Томас Андерсон, Драма, 2012) [BDRip 1080p, Дубляж, Оригинал (английский), Sub]
Рейтинг:
(голосов: 1)



[img]{THEME}/images/logopost.png[/img]



Мастер / The Master


Год выпуска: 2012
Страна: США
Производство: Annapurna Pictures, Ghoulardi Film Company, The Weinstein Company LLC
Жанр: Драма

Режиссёр: Пол Томас Андерсон
В ролях: Хоакин Феникс, Филип Сеймур Хоффман, Эми Адамс, Лора Дерн, Джесси Племонс, Эмбир Чайлдерс, Рами Малек, Мартин Д. Дью, Кевин Дж. О’Коннор, Патриция МакКормак

Перевод: Дубляж, Оригинал (английский)
Субтитры: Russian, English

Описание: Демобилизованный моряк с загадочным прошлым не может найти места в послевоенной Америке. Он меняет одну работу за другой, пока случайно не знакомится с харизматичным создателем религиозного культа, известным писателем и философом. К удивлению приверженцев модного учения, их гуру делает агрессивного маргинала своим ближайшим помощником. По мере того как новая вера завоевывает поклонников, бывший бродяга начинает задаваться вопросами о том, во что он верит, и кем является его наставник на самом деле. Но некоторым тайнам лучше оставаться нераскрытыми…

Релиз от:Качество: BDRip 1080p |Сэмпл
Продолжительность: 02:17:30 час.


Формат: MKV
Видео кодек: x264
Аудио кодек: DTS
Видео: 1920x1036 (1,85:1), 23,976 fps, x264 ~13.7 Mbps , 0.288 bit/pixel
Аудио#1: 48 kHz/16-bit, DTS, 3/2 (L,C,R,l,r) + LFE ch, ~1510.00 kbps avg - (Дубляж)
Аудио#2: 48 kHz/16-bit, DTS, 3/2 (L,C,R,l,r) + LFE ch, ~1510.00 kbps avg - (Оригинал)

Дата премьеры (мир): 1 сентября 2012
Дата премьеры (РФ): 14 февраля 2013, «Вольга»

MediaInfo ▼
Complete name : The.Master.2012.D.BDRip.1080p.IRONCLUB.mkv
Format : Matroska
Format version : Version 2
File size : 16.4 GiB
Duration : 2h 17mn
Overall bit rate : 17.1 Mbps
Movie name : IRONCLUB
Encoded date : UTC 2013-03-12 12:58:28
Writing application : mkvmerge v5.2.0 (I cant explain) built on Dec 18 2011 18:12:03
Writing library : libebml v1.2.3 + libmatroska v1.3.0
Attachment : Yes / Yes

Video
ID : 1
Format : AVC
Format/Info : Advanced Video Codec
Format profile : [email protected]
Format settings, CABAC : Yes
Format settings, ReFrames : 4 frames
Codec ID : V_MPEG4/ISO/AVC
Duration : 2h 17mn
Bit rate : 13.7 Mbps
Width : 1 920 pixels
Height : 1 036 pixels
Display aspect ratio : 1.85:1
Frame rate : 23.976 fps
Color space : YUV
Chroma subsampling : 4:2:0
Bit depth : 8 bits
Scan type : Progressive
Bits/(Pixel*Frame) : 0.288
Stream size : 13.2 GiB (80%)
Title : The.Master.2012.1080p.BluRay.DTS.x264-Skazhutin
Writing library : x264 core 129 r2245kMod bc13772
Encoding settings : cabac=1 / ref=4 / deblock=1:-3:-3 / analyse=0x3:0x113 / me=umh / subme=11 / psy=1 / fade_compensate=0.00 / psy_rd=1.00:0.00 / mixed_ref=1 / me_range=48 / chroma_me=1 / trellis=2 / 8x8dct=1 / cqm=0 / deadzone=21,11 / fast_pskip=1 / chroma_qp_offset=-2 / threads=12 / lookahead_threads=2 / sliced_threads=0 / nr=0 / decimate=1 / interlaced=0 / bluray_compat=0 / constrained_intra=0 / bframes=11 / b_pyramid=2 / b_adapt=2 / b_bias=0 / direct=3 / weightb=1 / open_gop=0 / weightp=2 / keyint=250 / keyint_min=23 / scenecut=40 / intra_refresh=0 / rc_lookahead=40 / rc=crf / mbtree=0 / crf=17.0000 / qcomp=0.70 / qpmin=0 / qpmax=69 / qpstep=4 / vbv_maxrate=50000 / vbv_bufsize=62500 / crf_max=0.0 / nal_hrd=none / ip_ratio=1.25 / pb_ratio=1.15 / aq=1:0.75
Language : English
Default : Yes
Forced : Yes
Matrix coefficients : BT.709-5, BT.1361, IEC 61966-2-4 709, SMPTE RP177

Audio #1
ID : 2
Format : DTS
Format/Info : Digital Theater Systems
Codec ID : A_DTS
Duration : 2h 17mn
Bit rate mode : Constant
Bit rate : 1 510 Kbps
Channel(s) : 6 channels
Channel positions : Front: L C R, Side: L R, LFE
Sampling rate : 48.0 KHz
Bit depth : 24 bits
Compression mode : Lossy
Stream size : 1.45 GiB (9%)
Title : DTS 5.1 @ 1536 kbps - Dub, BD RUS
Language : Russian
Default : Yes
Forced : Yes

Audio #2
ID : 3
Format : DTS
Format/Info : Digital Theater Systems
Codec ID : A_DTS
Duration : 2h 17mn
Bit rate mode : Constant
Bit rate : 1 510 Kbps
Channel(s) : 6 channels
Channel
f1de1aeeca9d526860d35886402fef4d04c49db6Мастер / The Master (Пол Томас Андерсон, Драма, 2012) [BDRip 1080p, Дубляж, Оригинал (английский), Sub] Мастер / The Master (Пол Томас Андерсон, Драма, 2012) [BDRip 1080p, Дубляж, Оригинал (английский), Sub] " />

Аплоадер: Админ, дата: 12-03-2013, 21:43, торрент скачан: 359 раз

Понравилась раздача? Посмотрите эти:
  • Мастер / The Master (Пол Томас Андерсон, драма, 2012) [BDRip-AVC, Дубляж, О ...
  • Мастер / The Master (Пол Томас Андерсон, драма, 2012) [BDRip-AVC, Дубляж, А ...
  • Хичкок / Hitchcock (Саша Джерваси, Драма, история, биография, 2012) [BDRip ...
  • Мастер / The Master (Пол Томас Андерсон, Драма, 2012) [HDRip, Дубляж]
  • Мастер / The Master (Пол Томас Андерсон, Драма, 2012) [BDRip 720p, Дубляж, ...
  • Мастер / The Master (Пол Томас Андерсон, Драма, 2012) [BDRip, Дубляж]
  • Мастер / The Master (Пол Томас Андерсон, Драма, 2012) [BDRip-AVC, Дубляж, О ...
  • Мастер / Master (Пол Томас Андерсон, Драма, 2012) [320x240] [HDRip, Дублиро ...
  • Мастер / The Master (Пол Томас Андерсон, Драма, 2012) [HDRip-AVC, Дубляж]
  • [EN] Мастер / The Master (Пол Томас Андерсон, драма, 2012) [DVDRip, оригина ...
  • Анна Каренина / Anna Karenina (Джо Райт, Драма, мелодрама, 2012) [BDRip 720 ...
  • Толстяк на ринге / Here Comes the Boom (Фрэнк Корачи, Боевик, комедия, 201 ...
  • Толстяк на ринге / Here Comes the Boom (Фрэнк Корачи, Боевик, комедия, 201 ...
  • Заложница 2 [Театральная версия] / Taken 2 [Theatrical Cut] (Оливье Мегатон ...
  • Анна Каренина / Anna Karenina (Джо Райт, Драма, мелодрама, 2012) [BDRip 108 ...
  • Хорошо быть тихоней / The Perks of Being a Wallflower (Стивен Чбоски, Драма ...
  • Хроника [Режиссёрская версия] / Chronicle [Directors cut] (Джошуа Транк, фа ...
  • Красные огни / Red Lights (Родриго Кортес, Ужасы, триллер, драма, 2012) [BD ...
  • Медальон / Stolen (Саймон Уэст, Боевик, триллер, 2012) [BDRip 720p, Дубляж, ...
  • Супер Майк / Magic Mike (Стивен Содерберг, Драма, комедия, 2012) [BDRip 108 ...
  • Третий лишний / Ted (Сет МакФарлейн, Фэнтези, комедия, 2012) [BDRip 720p, Д ...
  • На Дороге / On The Road (Уолтер Саллес, Драма, приключения, 2012) [BDRip 10 ...
  • Коллекционер 2 / The Collection (Маркус Данстэн, ужасы, боевик, триллер, 20 ...
  • Коллекционер 2 / The Collection (Маркус Данстэн, ужасы, боевик, триллер, 20 ...
  • [Трейлер] Мастер / The Master (Пол Томас Андерсон, драма) [HDRip, Дублирова ...
  • Информация
    Посетители, находящиеся в группе Гости, не могут оставлять комментарии к данной публикации.